<?xml version="1.0" standalone="no"?>
<!DOCTYPE svg PUBLIC "-//W3C//DTD SVG 1.1//EN" "http://www.w3.org/Graphics/SVG/1.1/DTD/svg11.dtd" >
<svg xmlns="http://www.w3.org/2000/svg" xmlns:xlink="http://www.w3.org/1999/xlink" version="1.1">
<metadata>
Created by FontForge 20201107 at Tue Aug  6 13:46:12 2024
 By 
Copyright (c) 2020 Andrea Biggio &#38; The Designers Foundry. All rights reserved.
</metadata>
<defs>
<font id="TomatoGrotesk-Bold" horiz-adv-x="1957" >
  <font-face 
    font-family="Tomato Grotesk"
    font-weight="700"
    font-stretch="normal"
    units-per-em="2048"
    panose-1="0 0 8 0 0 0 0 0 0 0"
    ascent="1638"
    descent="-410"
    x-height="1057"
    cap-height="1434"
    bbox="-807 -623 4778 2007"
    underline-thickness="102"
    underline-position="-491"
    unicode-range="U+0020-1F345"
  />
<missing-glyph horiz-adv-x="1024" 
d="M190 1638h650v-2048h-650v2048zM682 1434v67h-338v-67h133v-76h-135v-68h340v68h-135v76h135zM547 1094v143h-205v-213h340v70h-135zM410 1167h67v-73h-67v73zM682 901v68h-340v-68h135v-76h-135v-67h205v143h135zM682 641v205h-68v-135h-272v-70h340zM682 365v231h-205
v-115h70v47h67v-96h-204v164h-68v-231h340zM682 10v232h-340v-232h340zM410 174h204v-96h-204v96zM682 -104v67h-340v-67h143l-143 -97v-67h340v67h-209l143 97h66z" />
    <glyph glyph-name="f_f" unicode="ff" horiz-adv-x="1509" 
d="M1182 1204q-35 -29 -35 -106v-41h317v-180h-311v-877h-291v877h-352v-877h-291v877h-194v180h194v41q0 189 97 277q98 89 307 89q93 0 198 -4v-231q-99 4 -149 4q-98 0 -133 -29t-35 -106v-41h358v41q0 189 97 277q98 89 307 89q93 0 198 -4v-231q-99 4 -149 4
q-98 0 -133 -29z" />
    <glyph glyph-name="f_f_i" unicode="ffi" horiz-adv-x="1904" 
d="M1804 1057v-1057h-293v877h-352v-877h-291v877h-358v-877h-291v877h-194v180h194v41q0 189 97 277q98 89 307 89q93 0 198 -4v-231q-99 4 -149 4q-98 0 -133 -29t-35 -106v-41h364v47q0 172 96 268q94 94 296 94h544l-2 -231h-508q-72 0 -107 -32q-34 -31 -34 -99v-47
h651z" />
    <glyph glyph-name="f_f_l" unicode="ffl" horiz-adv-x="1904" 
d="M1804 1466v-1466h-293v1235h-217q-72 0 -107 -32q-34 -31 -34 -99v-47h277v-180h-271v-877h-291v877h-358v-877h-291v877h-194v180h194v41q0 189 97 277q98 89 307 89q93 0 198 -4v-231q-99 4 -149 4q-98 0 -133 -29t-35 -106v-41h364v47q0 172 96 268q94 94 296 94h544z
" />
    <glyph glyph-name="f_i" unicode="fi" horiz-adv-x="1255" 
d="M1155 1057v-1057h-293v877h-352v-877h-291v877h-194v180h194v47q0 173 95 268q94 94 296 94h545l-2 -231h-508q-72 0 -107 -32q-34 -31 -34 -99v-47h651z" />
    <glyph glyph-name="f_l" unicode="fl" horiz-adv-x="1255" 
d="M1155 1466v-1466h-293v1235h-217q-72 0 -107 -32q-34 -31 -34 -99v-47h276v-180h-270v-877h-291v877h-194v180h194v47q0 173 95 268q94 94 296 94h545z" />
    <glyph glyph-name="w_w_w" unicode="www" horiz-adv-x="4780" 
d="M4467 1057h311l-363 -1057h-301l-202 709h-11l-202 -709h-301l-248 725l-250 -725h-301l-203 709h-10l-203 -709h-301l-248 725l-250 -725h-301l-202 709h-11l-202 -709h-301l-363 1057h311l80 -242l33 -106q13 -49 45 -152q42 -136 64 -219h10q49 197 127 477l67 242
h267l69 -242q78 -280 127 -477h10q22 83 64 219q32 103 45 152l33 106l80 242h395l80 -242l33 -106q13 -49 45 -152q33 -108 63 -219h10q49 197 127 477l68 242h266l70 -242q78 -280 127 -477h10q30 111 63 219q42 137 46 152l32 106l80 242h395l80 -242l33 -106
q13 -49 45 -152q42 -136 64 -219h10q49 197 127 477l67 242h267l69 -242q78 -280 127 -477h11q30 111 63 219q32 103 45 152l33 106z" />
    <glyph glyph-name=".notdef" horiz-adv-x="1024" 
d="M190 1638h650v-2048h-650v2048zM682 1434v67h-338v-67h133v-76h-135v-68h340v68h-135v76h135zM547 1094v143h-205v-213h340v70h-135zM410 1167h67v-73h-67v73zM682 901v68h-340v-68h135v-76h-135v-67h205v143h135zM682 641v205h-68v-135h-272v-70h340zM682 365v231h-205
v-115h70v47h67v-96h-204v164h-68v-231h340zM682 10v232h-340v-232h340zM410 174h204v-96h-204v96zM682 -104v67h-340v-67h143l-143 -97v-67h340v67h-209l143 97h66z" />
    <glyph glyph-name=".null" horiz-adv-x="0" 
 />
    <glyph glyph-name="nonmarkingreturn" horiz-adv-x="682" 
 />
    <glyph glyph-name="space" unicode=" " horiz-adv-x="438" 
 />
    <glyph glyph-name="exclam" unicode="!" horiz-adv-x="520" 
d="M154 465l-50 969h314l-49 -969h-215zM127 19q-53 53 -53 135q0 78 53 129t133 51q82 0 134 -51t52 -129q0 -83 -52 -135t-134 -52q-81 0 -133 52z" />
    <glyph glyph-name="quotedbl" unicode="&#x22;" horiz-adv-x="980" 
d="M385 766h-217l-53 668h321zM815 766h-217l-53 668h321z" />
    <glyph glyph-name="numbersign" unicode="#" horiz-adv-x="1507" 
d="M252 338h-182v233h229l61 308h-190v233h240l65 322h254l-55 -322h315l66 322h254l-56 -322h185v-233h-232l-63 -308h192v-233h-239l-70 -338h-252l57 338h-315l-70 -338h-251zM627 879l-64 -308h316l61 308h-313z" />
    <glyph glyph-name="dollar" unicode="$" horiz-adv-x="1353" 
d="M1166 97q-148 -114 -414 -126v-221h-131v221q-276 16 -428 146q-152 129 -150 350l307 -2q7 -101 78 -164q70 -62 193 -74l2 379l-138 31q-201 44 -305 146q-104 103 -104 261q0 187 146 297t407 121v221h131v-221q257 -17 398 -146q142 -130 147 -351h-301
q-4 99 -68 163q-63 63 -176 78v-375l219 -51q159 -35 247 -129q89 -95 89 -252q0 -188 -149 -302zM446 935q52 -45 152 -67l31 -6v348q-115 -11 -173 -53q-61 -44 -61 -117q0 -62 51 -105zM752 225q116 10 181 57q64 46 64 123q0 57 -42 98q-41 39 -121 56l-82 19v-353z" />
    <glyph glyph-name="percent" unicode="%" horiz-adv-x="1861" 
d="M132 711q-91 112 -91 317q0 210 90 321t270 111q181 0 272 -111q91 -110 91 -321q0 -205 -91 -317q-92 -113 -272 -113q-177 0 -269 113zM645 0h-196l765 1434h197zM512 841q33 66 33 187q0 126 -34 191t-110 65q-77 0 -110 -66t-33 -190q0 -123 34 -188q35 -66 109 -66
q77 0 111 67zM1191 86q-91 112 -91 317q0 207 90 320t270 113q181 0 271 -113q90 -112 90 -320q0 -205 -90 -317q-90 -113 -271 -113q-177 0 -269 113zM1570 215q32 67 32 188q0 125 -33 191q-33 65 -109 65q-78 0 -110 -65q-33 -66 -33 -191t33 -189t110 -64q79 0 110 65z
" />
    <glyph glyph-name="ampersand" unicode="&#x26;" horiz-adv-x="1423" 
d="M1423 0h-333l-99 104q-99 -68 -213 -103q-111 -34 -215 -34q-232 0 -373 103q-139 102 -139 276q0 143 97 241q97 99 266 126l2 10q-119 114 -166 201q-47 86 -47 182q0 106 57 190q56 83 160 130q103 47 233 47q124 0 220 -43q98 -44 152 -120t54 -173q0 -128 -97 -222
q-96 -93 -280 -120l-2 -11l291 -315q53 110 60 246h264q-18 -259 -148 -436zM538 1202q-44 -44 -44 -110q0 -56 34 -115q33 -57 144 -162q73 54 115 128q40 70 40 149q0 67 -46 110t-122 43q-78 0 -121 -43zM827 281l-381 411q-69 -44 -105 -106q-36 -63 -36 -131
q0 -102 76 -174t219 -72q120 0 227 72z" />
    <glyph glyph-name="quotesingle" unicode="'" horiz-adv-x="550" 
d="M385 766h-217l-53 668h321z" />
    <glyph glyph-name="parenleft" unicode="(" horiz-adv-x="604" 
d="M330 -381q-133 253 -189 473q-57 225 -57 508q0 289 57 514q56 222 189 469h266q-114 -228 -163 -459q-50 -236 -50 -524q0 -278 50 -511q48 -225 163 -470h-266z" />
    <glyph glyph-name="parenright" unicode=")" horiz-adv-x="604" 
d="M8 -381q113 242 164 471q51 231 51 510q0 290 -51 523q-50 230 -164 460h268q130 -246 187 -469q57 -225 57 -514q0 -283 -57 -508q-56 -222 -187 -473h-268z" />
    <glyph glyph-name="asterisk" unicode="*" horiz-adv-x="903" 
d="M362 743q-21 -69 -83 -69q-49 0 -93 39q-43 39 -43 88q0 40 41 73l213 168l-4 11l-250 -21q-49 -6 -73 21q-25 28 -25 69q0 53 31 101q30 47 74 47q26 0 55 -21l205 -147l8 8l-86 231q-8 19 -8 41q0 41 37 65q36 23 90 23q52 0 89 -22q38 -23 38 -66q0 -19 -9 -41
l-86 -231l9 -8l204 149q27 21 56 21q42 0 74 -48q32 -49 32 -102q0 -42 -24 -69t-74 -21l-252 21l-2 -9l211 -170q41 -30 41 -73q0 -47 -43 -87t-92 -40q-62 0 -84 71l-82 259h-11z" />
    <glyph glyph-name="plus" unicode="+" horiz-adv-x="1122" 
d="M696 854h363v-248h-363v-364h-270v364h-363v248h363v365h270v-365z" />
    <glyph glyph-name="comma" unicode="," horiz-adv-x="577" 
d="M74 -342l129 668h301l-219 -668h-211z" />
    <glyph glyph-name="hyphen" unicode="-" horiz-adv-x="761" 
d="M698 453h-635v243h635v-243z" />
    <glyph glyph-name="period" unicode="." horiz-adv-x="520" 
d="M127 22q-53 53 -53 134q0 78 53 129t133 51q82 0 134 -51t52 -129q0 -82 -52 -134q-53 -53 -134 -53q-80 0 -133 53z" />
    <glyph glyph-name="slash" unicode="/" horiz-adv-x="806" 
d="M287 0h-281l514 1434h281z" />
    <glyph glyph-name="zero" unicode="0" horiz-adv-x="1372" 
d="M228 167q-150 198 -150 550q0 354 150 552q149 197 460 197q307 0 457 -198q149 -197 149 -551q0 -355 -150 -551q-150 -197 -456 -197q-310 0 -460 198zM900 335q69 126 69 382q0 258 -69 384t-212 126q-147 0 -216 -125q-69 -124 -69 -385q0 -259 69 -383
q69 -125 216 -125q143 0 212 126z" />
    <glyph glyph-name="one" unicode="1" horiz-adv-x="858" 
d="M416 1073q-47 -93 -122 -136q-76 -44 -208 -44h-25v287q189 0 305 66q115 66 138 188h239v-1434h-315v1071z" />
    <glyph glyph-name="two" unicode="2" horiz-adv-x="1228" 
d="M76 258l108 80q247 179 379 285q128 103 204 202q77 101 77 199q0 94 -58 147q-59 54 -155 54q-108 0 -171 -63t-67 -185h-301q6 244 150 365q145 122 389 122q234 0 380 -113t146 -319q0 -141 -81 -261q-82 -122 -202 -215q-143 -111 -329 -237l-86 -57l6 -14
q80 9 152 10q110 2 180 2h340v-260h-1061v258z" />
    <glyph glyph-name="three" unicode="3" horiz-adv-x="1280" 
d="M872 754q163 -16 256 -106t93 -234q0 -143 -74 -244t-200 -152t-283 -51q-263 0 -426 125q-162 125 -164 379h301q2 -138 78 -201q77 -63 204 -63q115 0 178 57q62 56 62 158q0 100 -63 153q-65 54 -181 54h-121v223h130q102 0 160 50q57 50 57 138q0 86 -63 136
q-62 49 -161 49q-243 0 -245 -248h-304q1 247 157 368q153 119 401 119q142 0 259 -46q118 -46 187 -135q70 -90 70 -210q0 -119 -79 -207q-79 -87 -229 -98v-14z" />
    <glyph glyph-name="four" unicode="4" horiz-adv-x="1314" 
d="M1071 0h-313v307h-695v295l664 832h344v-885h191v-242h-191v-307zM313 549h453v616h-14q-23 -68 -79 -151q-59 -86 -153 -205z" />
    <glyph glyph-name="five" unicode="5" horiz-adv-x="1245" 
d="M959 896q102 -58 163 -167q60 -108 60 -254q0 -153 -74 -269q-73 -115 -199 -177t-272 -62q-238 0 -392 116q-152 115 -167 331h293q7 -103 78 -161q68 -56 184 -56q118 0 184 70q66 71 66 198q0 122 -70 198q-68 74 -184 74q-94 0 -153 -37q-62 -39 -95 -114l-275 59
l130 789h872v-240h-625l-80 -412l15 -2q30 76 112 125t195 49q131 0 234 -58z" />
    <glyph glyph-name="six" unicode="6" horiz-adv-x="1284" 
d="M383 700q27 116 123 180q95 64 254 64q133 0 237 -58q105 -58 162 -167q58 -110 58 -256q0 -158 -75 -269q-76 -112 -201 -169q-128 -58 -277 -58q-293 0 -440 189q-146 188 -146 534q0 369 147 573q146 203 445 203q202 0 348 -97q148 -98 178 -302h-287
q-41 168 -239 168q-163 0 -232 -129t-69 -404zM851 278q69 70 69 185q0 109 -69 182q-69 74 -185 74q-120 0 -189 -74q-69 -73 -69 -182q0 -113 69 -183q70 -71 187 -73q118 0 187 71z" />
    <glyph glyph-name="seven" unicode="7" horiz-adv-x="1073" 
d="M840 1194h-811v240h1015v-250q-244 -256 -350 -530q-104 -269 -110 -654h-326q4 245 75 478q70 231 202 416q131 184 307 286z" />
    <glyph glyph-name="eight" unicode="8" horiz-adv-x="1263" 
d="M206 80q-155 113 -155 317q0 147 80 239q79 91 217 118v14q-109 21 -174 104t-65 209q0 115 66 203t186 135q121 47 276 47q152 0 272 -47q119 -47 185 -135q65 -87 65 -203q0 -123 -67 -208q-66 -84 -181 -105v-14q141 -29 224 -119q82 -89 82 -238q0 -205 -153 -317
q-154 -113 -427 -113q-276 0 -431 113zM809 897q63 47 63 147q0 96 -63 145q-64 50 -176 50t-176 -50t-64 -145q0 -100 64 -147t176 -47t176 47zM835 263q72 57 72 163t-72 162q-71 55 -202 55q-130 0 -201 -55q-72 -56 -72 -162q0 -105 73 -163q71 -56 200 -56
q131 0 202 56z" />
    <glyph glyph-name="nine" unicode="9" horiz-adv-x="1290" 
d="M907 733q-27 -117 -123 -180q-98 -64 -254 -64q-131 0 -237 59q-105 58 -162 167q-57 108 -57 256q0 159 74 269q76 112 201 169q126 57 278 57q293 0 439 -188t146 -535q0 -369 -146 -572q-147 -204 -443 -204q-201 0 -350 98t-177 302h285q21 -82 79 -125t163 -43
q161 0 230 129t69 403zM440 1156q-67 -70 -67 -185q0 -110 67 -183t187 -73q117 0 186 73q70 75 70 183q0 113 -69 183q-70 72 -187 73q-119 0 -187 -71z" />
    <glyph glyph-name="colon" unicode=":" horiz-adv-x="520" 
d="M127 699q-53 53 -53 135q0 78 53 129t133 51q82 0 134 -51t52 -129q0 -83 -52 -135t-134 -52q-81 0 -133 52zM127 22q-53 53 -53 134q0 78 53 129t133 51q82 0 134 -51t52 -129q0 -82 -52 -134q-53 -53 -134 -53q-80 0 -133 53z" />
    <glyph glyph-name="semicolon" unicode=";" horiz-adv-x="624" 
d="M229 699q-53 53 -53 135q0 78 53 129q52 51 133 51q82 0 135 -51q52 -51 52 -129q0 -83 -52 -135t-135 -52q-81 0 -133 52zM74 -342l129 668h301l-219 -668h-211z" />
    <glyph glyph-name="less" unicode="&#x3c;" horiz-adv-x="1081" 
d="M322 707q304 -84 548 -168l148 -58v-288l-955 374v287l955 377v-289l-148 -57q-195 -65 -548 -168v-10z" />
    <glyph glyph-name="equal" unicode="=" horiz-adv-x="1122" 
d="M63 1044h996v-235h-996v235zM63 649h996v-235h-996v235z" />
    <glyph glyph-name="greater" unicode="&#x3e;" horiz-adv-x="1081" 
d="M758 717l-62 18q-320 94 -485 150l-148 57v289l955 -377v-287l-955 -374v288l148 58q220 74 547 168v10z" />
    <glyph glyph-name="question" unicode="?" horiz-adv-x="1110" 
d="M399 453q0 106 16 176q15 65 57 116q43 52 128 109q78 56 114 99q35 43 40 104q0 83 -52 126q-51 42 -145 42q-117 0 -170 -57q-54 -58 -55 -191h-293q0 493 526 493q222 0 362 -100t140 -285q0 -104 -53 -190q-52 -85 -160 -164q-81 -58 -114 -91q-34 -34 -47 -74
q-14 -41 -15 -113h-279zM404 20q-54 52 -54 134q0 76 54 128q53 52 135 52q81 0 133 -51q53 -51 53 -129q0 -82 -53 -135q-52 -52 -133 -52q-80 0 -135 53z" />
    <glyph glyph-name="at" unicode="@" horiz-adv-x="1724" 
d="M526 -508q-216 113 -345 330q-128 215 -128 502q0 240 104 453q104 212 310 342t502 130q293 0 475 -139t182 -424v-686h-276l-11 330h-10q-21 -176 -131 -269q-110 -94 -280 -94q-161 0 -260 75t-99 218q0 142 108 225q107 82 322 80q139 -1 214 15q76 17 107 59
q31 43 31 127q0 119 -94 197q-93 77 -268 77q-229 0 -388 -96q-158 -96 -238 -255q-79 -158 -79 -341q0 -236 101 -409q101 -174 270 -262q171 -90 377 -91q225 -4 459 105v-217q-238 -97 -477 -97q-259 0 -478 115zM1178 199q74 41 117 108q44 68 44 144v161h-10
q-11 -68 -42 -108q-33 -42 -100 -64q-69 -22 -192 -30q-65 -4 -102 -37t-37 -88q0 -62 41 -95q39 -32 121 -32q86 0 160 41z" />
    <glyph glyph-name="A" unicode="A" horiz-adv-x="1495" 
d="M1489 0h-334l-121 338h-585l-119 -338h-324l541 1434h385zM532 580h416l-86 241q-73 213 -117 359h-14q-42 -148 -115 -361z" />
    <glyph glyph-name="B" unicode="B" horiz-adv-x="1368" 
d="M918 778q201 -8 306 -108t105 -254q0 -200 -133 -308q-134 -108 -381 -108h-700v1434h762q197 0 309 -86q110 -85 110 -238q0 -143 -100 -227q-101 -84 -278 -90v-15zM430 1188v-357h315q109 0 170 50q60 50 60 139q0 80 -51 124q-52 44 -148 44h-346zM795 246
q99 0 155 49q58 50 58 135q0 82 -63 131q-62 49 -167 49h-348v-364h365z" />
    <glyph glyph-name="C" unicode="C" horiz-adv-x="1497" 
d="M1446 557q-12 -177 -98 -311q-85 -133 -234 -206t-346 -73q-220 0 -380 90q-161 90 -248 260t-87 402q0 230 87 400q87 169 248 258t380 89q198 0 347 -72t235 -207q86 -134 98 -313h-322q-17 159 -112 251q-97 94 -250 94q-178 0 -282 -133q-103 -131 -103 -367
q0 -238 104 -370q105 -134 285 -134q152 0 247 93t111 249h320z" />
    <glyph glyph-name="D" unicode="D" horiz-adv-x="1474" 
d="M1065 1356q166 -78 261 -239t95 -400q0 -367 -201 -542q-200 -175 -532 -175h-573v1434h573q210 0 377 -78zM678 246q192 0 306 118t114 353q0 243 -114 357t-308 114h-246v-942h248z" />
    <glyph glyph-name="E" unicode="E" horiz-adv-x="1259" 
d="M1208 1434v-246h-778v-330h696v-240h-696v-372h774v-246h-1089v1434h1093z" />
    <glyph glyph-name="F" unicode="F" horiz-adv-x="1193" 
d="M1165 1434v-246h-735v-330h670v-240h-670v-618h-315v1434h1050z" />
    <glyph glyph-name="G" unicode="G" horiz-adv-x="1591" 
d="M1202 332q-44 -160 -167 -263q-121 -102 -330 -102q-189 0 -337 90q-150 91 -232 260q-83 171 -83 400q0 225 87 394t252 262t392 93q294 0 472 -145q180 -147 210 -391h-321q-24 129 -117 210q-91 79 -240 79q-198 -1 -305 -137q-104 -132 -104 -365q0 -241 111 -371
q111 -131 329 -131q107 0 194 41q83 39 134 112q49 70 55 152v21h-483v221h778v-762h-266l-14 332h-15z" />
    <glyph glyph-name="H" unicode="H" horiz-adv-x="1476" 
d="M1049 842v592h313v-1434h-313v596h-619v-596h-315v1434h315v-592h619z" />
    <glyph glyph-name="I" unicode="I" horiz-adv-x="544" 
d="M115 0v1434h315v-1434h-315z" />
    <glyph glyph-name="J" unicode="J" horiz-adv-x="1193" 
d="M49 555h305v-82q0 -137 53 -198q53 -60 164 -60q114 0 164 69q49 68 49 216v934h316v-942q0 -276 -145 -401q-143 -124 -377 -124q-231 0 -380 116t-149 392v80z" />
    <glyph glyph-name="K" unicode="K" horiz-adv-x="1454" 
d="M864 829q146 0 228 -67q81 -67 137 -223l196 -539h-321l-162 434q-34 94 -79 130q-43 34 -138 34h-98l-197 -213v-385h-315v1434h315l-10 -668l14 -4q111 148 295 350l291 322h375l-324 -355q-89 -97 -225 -237l4 -13h14z" />
    <glyph glyph-name="L" unicode="L" horiz-adv-x="1163" 
d="M430 1434v-1188h705v-246h-1020v1434h315z" />
    <glyph glyph-name="M" unicode="M" horiz-adv-x="1841" 
d="M115 0v1434h454l209 -588q89 -258 135 -410h15q46 152 135 410l209 588h454v-1434h-307v635q0 247 2 473l-12 2l-152 -471l-210 -639h-252l-211 639l-152 471l-12 -2q2 -226 2 -473v-635h-307z" />
    <glyph glyph-name="N" unicode="N" horiz-adv-x="1513" 
d="M414 1024q6 -180 6 -502v-522h-305v1434h346l389 -615l31 -49q131 -209 202 -332l13 2q-6 159 -6 434v560h309v-1434h-338l-361 578q-40 65 -65 104q-145 239 -207 346z" />
    <glyph glyph-name="O" unicode="O" horiz-adv-x="1566" 
d="M398 59q-165 90 -255 260q-90 169 -90 400q0 229 90 398q89 168 254 259q163 90 385 90q221 0 386 -90t255 -259t90 -398q0 -231 -90 -400q-90 -170 -255 -260t-386 -90q-219 0 -384 90zM1079 345q109 129 109 374q0 241 -109 371q-108 129 -297 129q-188 0 -296 -129
q-107 -128 -107 -371q0 -248 107 -374q108 -128 296 -128q189 0 297 128z" />
    <glyph glyph-name="P" unicode="P" horiz-adv-x="1343" 
d="M1145 1312q145 -121 145 -349q0 -146 -69 -251q-68 -104 -192 -162q-119 -56 -279 -56h-320v-494h-315v1434h647q237 0 383 -122zM694 715q128 0 203 59q76 60 76 176q0 118 -76 178q-77 60 -203 60h-264v-473h264z" />
    <glyph glyph-name="Q" unicode="Q" horiz-adv-x="1568" 
d="M709 -84q-323 102 -490 294q-166 191 -166 509q0 225 90 395t255 261q164 91 386 91t386 -91q165 -91 255 -261q91 -171 91 -395q0 -285 -142 -481q-141 -195 -438 -222v-14l567 -18v-314zM1083 346q107 130 107 373q0 241 -109 371q-108 129 -297 129q-190 0 -298 -128
q-107 -126 -107 -372q0 -245 107 -373q108 -129 298 -129q192 0 299 129z" />
    <glyph glyph-name="R" unicode="R" horiz-adv-x="1380" 
d="M1341 0h-315l-51 328q-12 76 -36 117q-24 40 -73 55q-46 14 -141 14h-295v-514h-315v1434h729q218 0 341 -96q122 -95 122 -263q0 -152 -103 -252q-100 -97 -268 -108v-15q161 -1 235 -65q74 -63 101 -215zM754 737q109 0 178 64q67 63 67 168q0 98 -67 158
q-69 61 -178 61h-324v-451h324z" />
    <glyph glyph-name="S" unicode="S" horiz-adv-x="1353" 
d="M210 100q-172 131 -167 365h307q7 -115 97 -179q89 -63 243 -65q145 0 226 48t81 134q0 59 -42 100q-41 39 -121 56l-349 76q-201 45 -305 149t-104 260q0 196 162 308q161 112 444 112q292 0 455 -132t168 -369h-301q-4 119 -90 183q-85 64 -232 64q-136 0 -212 -44
q-75 -44 -75 -126q0 -62 51 -105q52 -45 152 -67l381 -88q159 -35 247 -129q89 -95 89 -252q0 -201 -165 -315q-166 -115 -460 -115q-308 0 -480 131z" />
    <glyph glyph-name="T" unicode="T" horiz-adv-x="1282" 
d="M1253 1434v-246h-452v-1188h-314v1188h-458v246h1224z" />
    <glyph glyph-name="U" unicode="U" horiz-adv-x="1449" 
d="M94 1434h314v-881q0 -334 317 -334t317 336v879h314v-897q0 -282 -171 -426t-460 -144q-283 0 -457 147t-174 431v889z" />
    <glyph glyph-name="V" unicode="V" horiz-adv-x="1427" 
d="M528 0l-522 1434h336l94 -287l137 -424q123 -378 138 -426h14q73 230 106 330q11 34 39 116.5t39 118.5l92 283l97 289h323l-516 -1434h-377z" />
    <glyph glyph-name="W" unicode="W" horiz-adv-x="2031" 
d="M408 0l-402 1434h330l41 -160l100 -414q4 -16 21 -87.5t31 -128.5q44 -181 65 -277h14q41 192 121 540q73 302 88 377l35 150h326l36 -150q24 -98 89 -377q69 -297 120 -540h15q32 147 81 349q18 73 68 285l66 273l41 160h331l-401 -1434h-360l-242 1034h-14l-240 -1034
h-360z" />
    <glyph glyph-name="X" unicode="X" horiz-adv-x="1386" 
d="M6 0l506 739l-469 695h367l47 -76l57 -92q5 -9 71 -112q56 -87 103 -177h17q69 132 184 303l57 90l39 64h354l-465 -691l506 -743h-368l-62 92q-154 233 -256 408h-14q-80 -144 -258 -414l-60 -86h-356z" />
    <glyph glyph-name="Y" unicode="Y" horiz-adv-x="1392" 
d="M1386 1434l-530 -863v-571h-315v571l-535 863h354l111 -183l23 -39q146 -251 204 -362h15q108 208 225 405l104 179h344z" />
    <glyph glyph-name="Z" unicode="Z" horiz-adv-x="1290" 
d="M53 0l-2 252l797 915l-4 15q-183 -15 -527 -15h-229v267h1143v-252l-801 -916l8 -14q224 14 422 14h379v-266h-1186z" />
    <glyph glyph-name="bracketleft" unicode="[" horiz-adv-x="731" 
d="M702 -379h-587v1962h587v-242h-309v-1478h309v-242z" />
    <glyph glyph-name="backslash" unicode="\" horiz-adv-x="806" 
d="M287 1434l514 -1434h-281l-514 1434h281z" />
    <glyph glyph-name="bracketright" unicode="]" horiz-adv-x="731" 
d="M616 1583v-1962h-587v242h309v1478h-309v242h587z" />
    <glyph glyph-name="asciicircum" unicode="^" horiz-adv-x="878" 
d="M434 1214q-7 -30 -38 -97q-49 -108 -68 -148l-64 -129h-260l297 594h277l296 -594h-260l-63 127q-90 199 -105 247h-12z" />
    <glyph glyph-name="underscore" unicode="_" horiz-adv-x="978" 
d="M981 -356h-983v217h983v-217z" />
    <glyph glyph-name="grave" unicode="`" horiz-adv-x="704" 
d="M705 1356l-66 -164l-639 246l78 186z" />
    <glyph glyph-name="a" unicode="a" horiz-adv-x="1208" 
d="M150 485q105 82 321 80q196 -1 274 33t78 115q0 63 -53 110t-168 47q-118 0 -184 -63q-65 -62 -76 -170h-289q6 125 69 227q64 104 183 164q122 62 295 62q255 0 383 -116q127 -115 127 -298v-676h-279l-8 330h-10q-21 -176 -131 -269q-110 -94 -281 -94q-160 0 -259 75
t-99 218q0 142 107 225zM380 191q40 -33 122 -33q85 0 159 41q75 41 118 108q44 68 44 144v161h-10q-11 -68 -42 -108q-33 -42 -100 -64q-69 -22 -192 -30q-66 -5 -103 -37q-38 -33 -38 -88q0 -59 42 -94z" />
    <glyph glyph-name="b" unicode="b" horiz-adv-x="1292" 
d="M1023 1021q102 -69 159 -196t57 -297t-57 -297q-56 -125 -159 -195q-102 -69 -232 -69q-134 0 -240 83q-105 82 -150 245h-12l-8 -295h-283v1434h291v-674h12q45 165 150 247q106 83 240 83q130 0 232 -69zM870 265q76 94 76 263q0 170 -76 264q-77 95 -202 95
q-126 0 -202 -84q-77 -85 -77 -213v-125q0 -126 77 -211q76 -84 202 -84q125 0 202 95z" />
    <glyph glyph-name="c" unicode="c" horiz-adv-x="1157" 
d="M124 831q72 127 195 192q126 67 283 67q152 0 267 -57q118 -58 183 -162q66 -105 72 -246h-288q-1 116 -66 181q-62 62 -168 62q-119 0 -185 -87q-67 -88 -67 -240q0 -171 67 -262t185 -91q110 0 170 65q60 64 64 185h288q-5 -154 -74 -257q-70 -105 -189 -159
q-121 -55 -259 -55q-154 0 -279 63q-126 64 -197 190q-73 129 -73 317q0 169 71 294z" />
    <glyph glyph-name="d" unicode="d" horiz-adv-x="1292" 
d="M903 1434h291v-1434h-281l-10 293h-10q-45 -162 -151 -245t-240 -83q-130 0 -232 69q-103 70 -159 195q-58 130 -58 295q0 168 58 298q57 128 159 197q101 68 232 68q136 0 240 -83q106 -85 151 -246h10v676zM827 251q76 82 76 212v125q0 130 -76 213q-77 84 -200 84
q-127 0 -204 -95t-77 -266q0 -166 77 -261t204 -95q123 0 200 83z" />
    <glyph glyph-name="e" unicode="e" horiz-adv-x="1198" 
d="M1139 469h-807q1 -130 82 -207q79 -76 204 -76q96 0 167 51q67 48 89 130h254q-17 -131 -94 -220q-79 -91 -188 -135q-111 -45 -228 -45q-260 0 -413 148q-152 147 -152 417q0 165 68 293q67 127 190 196t289 69q164 0 287 -72q122 -71 187 -194q65 -122 65 -271v-84z
M412 807q-73 -63 -80 -180h520q-7 114 -79 179q-70 64 -179 64q-110 0 -182 -63z" />
    <glyph glyph-name="f" unicode="f" horiz-adv-x="866" 
d="M539 1204q-35 -29 -35 -106v-41h317v-180h-311v-877h-291v877h-194v180h194v41q0 189 97 277q98 89 307 89q93 0 198 -4v-231q-99 4 -149 4q-98 0 -133 -29z" />
    <glyph glyph-name="g" unicode="g" horiz-adv-x="1212" 
d="M1171 1014l-374 65l-2 -14q119 -29 195 -116q75 -85 75 -206q0 -164 -125 -259t-346 -95q-84 0 -164 17q-48 -15 -66 -35q-20 -22 -20 -54q0 -38 35 -62t96 -24h291q198 0 298 -75q101 -76 101 -250q0 -171 -140 -256q-142 -86 -415 -86q-292 0 -417 60t-125 183
q0 175 286 199v8q-122 12 -187 68t-65 131q0 96 74 144q74 49 203 53v8q-126 40 -192 123q-66 84 -66 202q0 141 98 229q99 88 336 132q272 51 616 127v-217zM743 847q-52 40 -149 40q-98 0 -150 -40q-53 -41 -53 -104q0 -67 53 -109t150 -42q96 0 149 42q54 43 54 109
q0 62 -54 104zM414 12q-97 -33 -97 -114q0 -62 70 -95q67 -32 223 -32q162 0 227 31q66 32 66 100q0 59 -39 86q-38 26 -125 26z" />
    <glyph glyph-name="h" unicode="h" horiz-adv-x="1280" 
d="M986 1041q90 -49 142 -140q54 -94 54 -219v-682h-293v594q0 128 -62 198q-61 68 -178 68q-119 0 -188 -82q-70 -84 -70 -225v-553h-293v1434h293v-699h12q22 161 133 258t255 97q105 0 195 -49z" />
    <glyph glyph-name="i" unicode="i" horiz-adv-x="540" 
d="M148 1247q-50 50 -50 119q0 70 50 120t120 50q73 0 122 -49q50 -50 50 -121q0 -69 -50 -119q-49 -49 -122 -49q-71 0 -120 49zM125 0v1057h291v-1057h-291z" />
    <glyph glyph-name="j" unicode="j" horiz-adv-x="604" 
d="M212 1247q-50 50 -50 119q0 70 50 120t120 50q73 0 122 -49q50 -50 50 -121q0 -69 -50 -119q-49 -49 -122 -49q-71 0 -120 49zM-47 -162q40 -2 78 -2q70 0 100 11q32 12 44 37q11 23 11 77v1096h293v-1098q0 -132 -33 -204q-33 -73 -114 -105q-82 -33 -236 -33
q-96 0 -143 4v217z" />
    <glyph glyph-name="k" unicode="k" horiz-adv-x="1177" 
d="M98 0v1434h285v-480q0 -182 -6 -366l10 -4q54 81 98 127q66 70 129 133l29 28l193 185h338l-213 -207q-123 -123 -246 -225v-11l33 -2q106 -1 172 -57q65 -55 106 -162l148 -393h-297l-91 248q-30 84 -74 125t-118 41h-78l-133 -129v-285h-285z" />
    <glyph glyph-name="l" unicode="l" horiz-adv-x="489" 
d="M98 0v1434h291v-1434h-291z" />
    <glyph glyph-name="m" unicode="m" horiz-adv-x="1988" 
d="M1712 1043q83 -47 130 -134q48 -89 48 -207v-702h-291v592q0 128 -58 198t-163 70q-112 0 -175 -82q-62 -81 -62 -227v-551h-291v592q0 125 -59 196q-60 72 -162 72q-112 0 -175 -82t-63 -227v-551h-293v1057h283l10 -322h12q22 165 129 260t246 95q146 0 250 -96
q102 -95 113 -259h12q22 165 129 260t248 95q99 0 182 -47z" />
    <glyph glyph-name="n" unicode="n" horiz-adv-x="1280" 
d="M986 1041q90 -49 142 -140q54 -94 54 -219v-682h-293v594q0 127 -64 197q-63 69 -176 69q-120 0 -189 -81t-69 -226v-553h-293v1057h283l10 -322h12q22 161 133 258t255 97q105 0 195 -49z" />
    <glyph glyph-name="o" unicode="o" horiz-adv-x="1259" 
d="M339 36q-134 70 -209 197q-77 130 -77 299q0 165 77 293q76 126 209 196q132 69 292 69q161 0 291 -69q131 -69 207 -196q77 -128 77 -293q0 -171 -76 -299q-76 -129 -207 -197q-132 -69 -292 -69t-292 69zM837 276q74 87 74 256q0 166 -74 250q-75 86 -206 86
q-133 0 -208 -86t-75 -250q0 -168 75 -256t208 -88q131 0 206 88z" />
    <glyph glyph-name="p" unicode="p" horiz-adv-x="1292" 
d="M1023 1021q102 -69 159 -196t57 -297t-57 -297q-56 -125 -159 -195q-102 -69 -232 -69q-134 0 -240 83q-105 82 -150 245h-12v-672h-291v1434h283l8 -297h12q45 165 150 247q106 83 240 83q130 0 232 -69zM870 265q76 94 76 263q0 170 -76 264q-77 95 -202 95
q-126 0 -202 -84q-77 -85 -77 -213v-125q0 -126 77 -211q76 -84 202 -84q125 0 202 95z" />
    <glyph glyph-name="q" unicode="q" horiz-adv-x="1292" 
d="M913 1057h281v-1434h-291v670h-10q-45 -162 -151 -245t-240 -83q-130 0 -232 69q-103 70 -159 195q-58 130 -58 295q0 168 58 298q57 128 159 197q101 68 232 68q136 0 240 -83q106 -85 151 -246h10zM827 251q76 82 76 212v125q0 130 -76 213q-77 84 -200 84
q-127 0 -204 -95t-77 -266q0 -166 77 -261t204 -95q123 0 200 83z" />
    <glyph glyph-name="r" unicode="r" horiz-adv-x="890" 
d="M401 651q23 158 72 252q47 90 136 131q90 41 245 41v-246q-173 -11 -268 -46q-99 -37 -144 -116q-47 -82 -53 -231v-436h-291v1057h283l8 -406h12z" />
    <glyph glyph-name="s" unicode="s" horiz-adv-x="1087" 
d="M172 66q-137 99 -141 280h286q5 -86 69 -131t183 -45q95 0 148 32t53 89q0 40 -32 67q-31 26 -111 43l-242 52q-162 30 -246 109q-86 80 -86 200q0 147 129 237q130 91 348 91q243 0 377 -101q133 -100 133 -282h-274q0 87 -58 133q-59 47 -163 47q-95 0 -151 -31
q-54 -30 -54 -86q0 -41 35 -70q34 -28 100 -43l262 -57q163 -35 242 -108q80 -74 80 -191q0 -160 -129 -247t-367 -87q-255 0 -391 99z" />
    <glyph glyph-name="t" unicode="t" horiz-adv-x="825" 
d="M780 877h-299v-533q0 -77 31 -103t123 -26q67 0 143 6v-223q-161 -12 -223 -10q-193 0 -279 66t-86 241v582h-165v180h165v276h277l8 -276h305v-180z" />
    <glyph glyph-name="u" unicode="u" horiz-adv-x="1280" 
d="M889 1057h293v-1057h-285l-8 322h-12q-15 -112 -71 -189q-58 -80 -140 -123q-83 -43 -179 -43q-107 0 -195 48q-87 47 -141 141q-53 92 -53 219v682h291v-594q0 -132 63 -199t179 -67q117 0 187 82q71 83 71 225v553z" />
    <glyph glyph-name="v" unicode="v" horiz-adv-x="1134" 
d="M395 0l-391 1057h311l93 -273q29 -92 61 -188l98 -311h11q24 84 45 144q8 23 19.5 59.5t14.5 46.5q28 82 80 249l92 273h301l-391 -1057h-344z" />
    <glyph glyph-name="w" unicode="w" horiz-adv-x="1748" 
d="M367 0l-363 1057h311l80 -242l33 -106q13 -49 45 -152q42 -136 64 -219h10q49 197 127 477l67 242h267l69 -242q78 -280 127 -477h10q22 83 64 219q32 103 45 152l33 106l80 242h311l-363 -1057h-301l-202 709h-11l-202 -709h-301z" />
    <glyph glyph-name="x" unicode="x" horiz-adv-x="1122" 
d="M4 0l391 541l-370 516h333l45 -64q126 -191 156 -241h10q76 123 158 245l43 60h328l-373 -514l393 -543h-332l-65 90q-99 149 -156 244h-12q-66 -107 -160 -244l-63 -90h-326z" />
    <glyph glyph-name="y" unicode="y" horiz-adv-x="1126" 
d="M571 256q53 184 158 520l19 55l69 226h305l-401 -1084q-56 -146 -127 -226q-73 -82 -169 -113t-243 -31q-47 0 -131 4v227q35 -4 103 -4q94 0 138 29q46 30 79 104l16 41l-383 1053h315l72 -232l37 -123q71 -227 133 -446h10z" />
    <glyph glyph-name="z" unicode="z" horiz-adv-x="1097" 
d="M59 0v162l590 676l-4 10q-119 -12 -348 -12h-205v221h924v-183l-555 -653l4 -12q159 12 326 12h243v-221h-975z" />
    <glyph glyph-name="braceleft" unicode="{" horiz-adv-x="770" 
d="M598 -387q-183 0 -275 86t-92 264v389q0 71 -41 98q-40 26 -127 31v244q87 5 127 34q41 30 41 95v387q0 178 92 264t275 86h143v-239h-102q-76 0 -107 -31q-30 -30 -30 -107v-423q0 -91 -51 -135q-51 -43 -158 -48v-12q111 -5 159 -47q50 -44 50 -135v-424q0 -79 30 -109
q31 -31 107 -31h102v-237h-143z" />
    <glyph glyph-name="bar" unicode="|" horiz-adv-x="473" 
d="M358 -412h-243v2044h243v-2044z" />
    <glyph glyph-name="braceright" unicode="}" horiz-adv-x="770" 
d="M29 -387v237h102q76 0 107 31q30 30 30 109v424q0 91 51 134t158 48v12q-108 5 -158 49q-51 45 -51 134v423q0 77 -30 107q-31 31 -107 31h-102v239h145q184 0 275 -86q90 -85 90 -264v-387q0 -65 41 -95q40 -29 127 -34v-244q-87 -5 -127 -31q-41 -27 -41 -98v-389
q0 -179 -90 -264q-91 -86 -275 -86h-145z" />
    <glyph glyph-name="asciitilde" unicode="~" horiz-adv-x="1081" 
d="M631 570q-48 17 -119 53q-50 24 -81 36q-34 13 -58 13q-48 0 -73 -28t-32 -87h-205q5 163 76 257q72 95 209 95q51 0 105 -19q55 -20 129 -54q49 -23 73 -32q33 -13 54 -13q46 0 70 27q23 26 34 87h205q-5 -159 -77 -256q-72 -96 -210 -96q-53 0 -100 17z" />
    <glyph glyph-name="exclamdown" unicode="&#xa1;" horiz-adv-x="520" 
d="M394 1166q52 -52 52 -134q0 -78 -52 -129t-134 -51q-80 0 -133 51t-53 129q0 81 53 134t133 53q81 0 134 -53zM418 -248h-314l50 969h215z" />
    <glyph glyph-name="cent" unicode="&#xa2;" horiz-adv-x="1157" 
d="M657 193q87 15 130 77q45 65 49 168h288q-7 -208 -137 -330q-130 -123 -330 -139v-207h-120v207q-217 21 -350 165q-134 145 -134 403q0 156 62 277t171 190q107 68 251 83v199h120v-199q205 -16 332 -139q128 -123 135 -323h-288q-1 99 -50 162q-47 61 -129 77v-671z
M399 307q50 -86 138 -110v663q-89 -21 -138 -104t-49 -215q0 -149 49 -234z" />
    <glyph glyph-name="sterling" unicode="&#xa3;" horiz-adv-x="1206" 
d="M467 246h700v-246h-1130v246h115v348h-115v178h115v252q0 220 136 332t374 112q239 0 368 -120q130 -121 135 -353h-297q-2 120 -54 172q-54 54 -150 54q-98 0 -148 -52q-49 -50 -49 -165v-232h514v-178h-514v-348z" />
    <glyph glyph-name="currency" unicode="&#xa4;" horiz-adv-x="1153" 
d="M965 418l147 -152l-88 -88l-154 154q-129 -90 -290 -90q-165 0 -293 94l-156 -158l-88 88l152 154q-107 134 -107 305q0 173 107 307l-152 156l88 88l156 -158q131 92 293 92q161 0 290 -90l154 156l88 -88l-149 -152q110 -129 110 -311q0 -177 -108 -307zM757 551
q68 67 68 174q0 109 -68 176q-70 68 -177 68q-106 0 -174 -69q-68 -70 -68 -175q0 -107 69 -174q70 -68 173 -68q107 0 177 68z" />
    <glyph glyph-name="yen" unicode="&#xa5;" horiz-adv-x="1388" 
d="M1384 1434l-469 -764h242v-127h-303v-148h303v-127h-303v-268h-315v268h-308v127h308v148h-308v127h246l-473 764h354l111 -183l23 -39q146 -251 204 -362h15q108 208 225 405l104 179h344z" />
    <glyph glyph-name="brokenbar" unicode="&#xa6;" horiz-adv-x="473" 
d="M358 815h-243v817h243v-817zM358 -418h-243v817h243v-817z" />
    <glyph glyph-name="section" unicode="&#xa7;" horiz-adv-x="1228" 
d="M281 -296q-123 102 -123 282h276q0 -187 180 -187q80 0 122 30t42 81q0 48 -32 85q-31 35 -99 73l-280 163q-163 96 -244 186q-80 89 -80 204q0 56 32 111t96 89q65 35 159 35l4 10q-72 51 -119 124t-47 155q0 157 121 239t340 82q203 0 323 -101q121 -102 121 -282h-274
q0 97 -48 142t-133 45q-79 0 -121 -30t-42 -83q0 -49 31 -83q30 -33 100 -75l278 -161q167 -98 247 -183q79 -83 79 -190q0 -103 -74 -179q-73 -75 -213 -73l-6 -10q79 -56 123 -127q45 -72 45 -152q0 -151 -118 -236t-333 -85q-211 0 -333 101zM869 347q34 41 34 91
q0 51 -34 91q-36 42 -109 85l-223 129q-41 21 -76 45q-63 -27 -97 -67t-34 -92q0 -50 34 -90q36 -43 109 -84l213 -123q6 -3 17.5 -10t31 -19t37.5 -22q62 24 97 66z" />
    <glyph glyph-name="dieresis" unicode="&#xa8;" horiz-adv-x="815" 
d="M508 1242q-43 43 -43 104q0 62 43 105q44 44 104 44q64 0 107 -43t43 -106q0 -62 -43 -105t-107 -43q-60 0 -104 44zM96 1241q-43 43 -43 105q0 60 43 103q44 44 105 44q63 0 106 -42t43 -105q0 -64 -43 -106t-106 -42q-62 0 -105 43z" />
    <glyph glyph-name="copyright" unicode="&#xa9;" horiz-adv-x="1640" 
d="M430 70q-176 100 -276 273q-101 173 -101 378q0 209 102 382q103 175 276 272q177 100 388 100q215 0 391 -101q177 -101 277 -273t100 -380q0 -209 -101 -380q-102 -173 -278 -272q-177 -100 -389 -100q-213 0 -389 101zM1102 240q128 74 201 200q73 127 73 281
q0 156 -72 283q-70 125 -201 200q-128 74 -284 74q-157 0 -284 -75q-126 -74 -199 -203q-72 -128 -72 -279q0 -150 73 -279q70 -125 200 -201q127 -75 282 -75t283 74zM470 948q53 95 145 144t212 49q169 0 275 -94t112 -252h-208q-1 90 -52 137q-50 47 -129 47
q-90 0 -141 -66t-51 -182q0 -129 51 -198q50 -68 141 -68q86 0 131 49q46 50 50 139h208q-5 -168 -114 -258q-112 -92 -273 -92q-176 0 -293 109q-116 108 -116 315q0 127 52 221z" />
    <glyph glyph-name="ordfeminine" unicode="&#xaa;" horiz-adv-x="1056" 
d="M135 955q92 71 277 69q167 -1 234 29t67 98q0 54 -46 94q-47 41 -145 41q-101 0 -158 -54t-63 -147h-250q6 105 60 196q53 89 156 141q104 53 253 53q221 0 330 -100q108 -99 108 -257v-579h-237l-8 282h-8q-18 -147 -114 -230q-95 -81 -241 -81q-137 0 -222 64t-85 188
q0 122 92 193zM333 702q35 -28 103 -28q73 0 137 35q65 36 102 93q38 59 38 124v139h-8q-11 -58 -37 -92q-27 -34 -85 -55q-59 -21 -165 -27q-57 -4 -89 -32q-32 -27 -32 -77q0 -52 36 -80z" />
    <glyph glyph-name="guillemotleft" unicode="&#xab;" horiz-adv-x="997" 
d="M256 532q49 -29 89 -57q38 -27 87 -67l31 -25v-277l-348 285v293l348 285v-279l-33 -24q-90 -74 -174 -123v-11zM676 532q49 -29 89 -57q38 -27 87 -67l31 -25v-277l-348 285v293l348 285v-279l-33 -24q-90 -74 -174 -123v-11z" />
    <glyph glyph-name="logicalnot" unicode="&#xac;" horiz-adv-x="1101" 
d="M63 672v243h975v-591h-270v348h-705z" />
    <glyph glyph-name="uni00AD" unicode="&#xad;" horiz-adv-x="761" 
d="M698 453h-635v243h635v-243z" />
    <glyph glyph-name="registered" unicode="&#xae;" horiz-adv-x="1150" 
d="M308 510q-122 68 -192 185q-71 119 -71 259q0 145 71 264q70 117 192 185q121 67 267 67q152 0 272 -68q121 -69 190 -187q69 -119 69 -261q0 -139 -70 -259q-68 -117 -191 -185q-122 -68 -270 -68q-145 0 -267 68zM783 606q94 52 148 143t54 205q0 116 -54 207
q-54 92 -148 145q-92 52 -208 52q-115 0 -207 -52q-94 -53 -147 -145t-53 -207q0 -110 53 -202t147 -145q92 -52 207 -52t208 51zM369 696v529h260q81 0 128 -36q46 -36 46 -99q0 -58 -38 -93q-37 -34 -106 -36v-7q63 -2 91 -25q28 -24 36 -71l27 -162h-135l-19 115
q-6 37 -22 49q-17 12 -57 12h-80v-176h-131zM588 973q39 0 59 19q21 19 21 55q0 32 -21 50q-20 17 -59 17h-88v-141h88z" />
    <glyph glyph-name="macron" unicode="&#xaf;" horiz-adv-x="696" 
d="M696 1198h-696v197h696v-197z" />
    <glyph glyph-name="degree" unicode="&#xb0;" horiz-adv-x="716" 
d="M133 980q-88 79 -88 204t88 204q87 78 225 78q139 0 226 -78q88 -79 88 -204t-88 -204t-226 -79q-137 0 -225 79zM452 1103q35 31 35 81q0 48 -35 79t-94 31q-58 0 -93 -31q-36 -31 -36 -79q0 -50 36 -81q37 -32 93 -32q57 0 94 32z" />
    <glyph glyph-name="plusminus" unicode="&#xb1;" horiz-adv-x="1122" 
d="M696 1219v-295h363v-248h-363v-295h-270v295h-363v248h363v295h270zM1059 0h-996v248h996v-248z" />
    <glyph glyph-name="uni00B2" unicode="&#xb2;" horiz-adv-x="729" 
d="M27 1257l123 86q125 87 202 146q66 51 102 99q35 47 35 102q0 54 -32 80q-34 28 -84 28q-61 0 -98 -33t-39 -96h-197q1 138 94 214q92 75 246 75q140 0 228 -71q87 -71 87 -199q0 -84 -47 -149t-121 -118q-77 -55 -241 -159l2 -11q74 9 198 9h203v-170h-661v167z" />
    <glyph glyph-name="uni00B3" unicode="&#xb3;" horiz-adv-x="757" 
d="M522 1538q93 -6 151 -60t58 -145q0 -126 -92 -197t-252 -71q-157 0 -258 75t-102 228h196q0 -147 164 -147q61 0 97 30t36 86t-34 86q-36 31 -101 31h-72v141h76q123 0 123 101q0 44 -34 71q-35 27 -91 27q-63 0 -99 -30q-37 -30 -38 -101h-199q1 156 99 222
q97 65 245 65q140 0 227 -63t87 -169q0 -72 -51 -120q-49 -46 -136 -52v-8z" />
    <glyph glyph-name="acute" unicode="&#xb4;" horiz-adv-x="704" 
d="M705 1438l-639 -246l-66 164l625 268z" />
    <glyph glyph-name="uni00B5" unicode="&#xb5;" horiz-adv-x="1376" 
d="M98 -377v1434h293v-590q0 -126 67 -199q65 -71 193 -71q140 0 201 64t61 208v588h293v-772q0 -40 16 -58q15 -16 50 -16q40 0 84 2v-215q-94 -8 -160 -8q-129 0 -204 54t-77 185l-2 54h-10q-22 -153 -89 -233q-66 -79 -208 -79q-59 0 -112 16q-50 15 -93 54l-12 -4
l-16 -414h-275z" />
    <glyph glyph-name="paragraph" unicode="&#xb6;" horiz-adv-x="1222" 
d="M510 721q-213 1 -336 91q-121 88 -121 261q0 180 117 270q118 91 346 91h592v-1434h-227v1221h-144v-1221h-227v721z" />
    <glyph glyph-name="periodcentered" unicode="&#xb7;" horiz-adv-x="520" 
d="M127 599q-53 53 -53 134q0 78 53 129t133 51q82 0 134 -51t52 -129q0 -82 -52 -134t-134 -52q-81 0 -133 52z" />
    <glyph glyph-name="cedilla" unicode="&#xb8;" horiz-adv-x="819" 
d="M426 -100q93 0 151 -43t58 -111q0 -96 -79 -144t-224 -48q-66 0 -146 4v114q54 -2 121 -2q55 0 88 21t33 57q0 72 -119 72q-24 0 -53 -4v82q86 30 86 102h143q0 -32 -22 -55q-23 -25 -60 -35v-10h23z" />
    <glyph glyph-name="uni00B9" unicode="&#xb9;" horiz-adv-x="499" 
d="M231 1702q-29 -50 -69 -72t-117 -22h-14v182q111 0 175 37t79 108h164v-845h-209v612h-9z" />
    <glyph glyph-name="ordmasculine" unicode="&#xba;" horiz-adv-x="1099" 
d="M298 569q-113 60 -179 170q-66 111 -66 258q0 144 66 252q66 109 179 168q114 60 251 60q139 0 253 -60q113 -59 179 -168q66 -108 66 -252q0 -147 -66 -258q-66 -110 -179 -170q-112 -59 -253 -59q-139 0 -251 59zM728 776q65 77 65 221q0 138 -65 214q-65 75 -179 75
q-113 0 -177 -75q-65 -76 -65 -214q0 -143 64 -221q63 -76 178 -76t179 76z" />
    <glyph glyph-name="guillemotright" unicode="&#xbb;" horiz-adv-x="997" 
d="M741 543q-84 49 -174 123l-32 24v279l348 -285v-293l-348 -285v277l30 25q49 40 87 67q40 28 89 57v11zM322 543q-87 51 -175 123l-32 24v279l348 -285v-293l-348 -285v277l30 25q49 40 87 67q34 24 90 57v11z" />
    <glyph glyph-name="onequarter" unicode="&#xbc;" horiz-adv-x="1503" 
d="M231 1200q-29 -50 -69 -72t-117 -22h-14v182q111 0 175 37t79 109h164v-846h-209v612h-9zM420 0h-189l766 1434h189zM1362 0h-209v182h-410v195l394 471h223v-508h113v-158h-111v-182zM905 340h256v328h-8q-29 -71 -149 -213z" />
    <glyph glyph-name="onehalf" unicode="&#xbd;" horiz-adv-x="1585" 
d="M231 1200q-29 -50 -69 -72t-117 -22h-14v182q111 0 175 37t79 109h164v-846h-209v612h-9zM430 0h-188l766 1434h188zM887 168l123 86q138 95 202 145t102 100q36 48 36 101q0 54 -33 81q-34 28 -84 28q-60 0 -97 -33q-39 -34 -40 -96h-197q1 138 94 214q90 74 246 74
q142 0 228 -70q87 -71 87 -200q0 -83 -47 -148t-121 -118q-90 -64 -241 -160l2 -10q66 8 199 8h202v-170h-661v168z" />
    <glyph glyph-name="threequarters" unicode="&#xbe;" horiz-adv-x="1732" 
d="M522 1044q93 -6 151 -60t58 -144q0 -127 -92 -198t-252 -71q-157 0 -258 75t-102 228h196q0 -147 164 -147q60 0 97 31q36 30 36 86t-34 86q-36 31 -101 31h-72v141h76q123 0 123 100q0 45 -34 72q-33 26 -91 26q-64 0 -99 -29q-37 -30 -38 -102h-199q1 157 99 223
q95 64 245 64q141 0 227 -62q87 -63 87 -169q0 -72 -51 -120q-49 -46 -136 -52v-9zM635 0h-189l766 1434h189zM1591 0h-209v182h-409v195l393 471h223v-508h113v-158h-111v-182zM1135 340h256v328h-9q-29 -71 -149 -213z" />
    <glyph glyph-name="questiondown" unicode="&#xbf;" horiz-adv-x="1114" 
d="M709 1160q53 -53 53 -134q0 -78 -53 -129t-134 -51t-133 51q-53 51 -53 129q0 81 53 134q52 52 133 52q82 0 134 -52zM715 727q0 -106 -16 -176q-15 -67 -57 -116q-40 -47 -128 -109q-74 -53 -115 -100q-38 -44 -39 -103q0 -83 51 -126q49 -42 144 -42q119 0 171 56
q52 57 54 192h295q-2 -494 -526 -494q-220 0 -362 101q-140 100 -140 284q0 106 52 191q53 86 159 164q85 61 115 91q36 36 47 73q13 42 14 114h281z" />
    <glyph glyph-name="Agrave" unicode="&#xc0;" horiz-adv-x="1495" 
d="M1489 0h-334l-121 338h-585l-119 -338h-324l541 1434h385zM532 580h416l-86 241q-73 213 -117 359h-14q-42 -148 -115 -361zM965 1733l-66 -164l-639 246l78 186z" />
    <glyph glyph-name="Aacute" unicode="&#xc1;" horiz-adv-x="1495" 
d="M1489 0h-334l-121 338h-585l-119 -338h-324l541 1434h385zM532 580h416l-86 241q-73 213 -117 359h-14q-42 -148 -115 -361zM1219 1815l-639 -246l-66 164l625 268z" />
    <glyph glyph-name="Acircumflex" unicode="&#xc2;" horiz-adv-x="1495" 
d="M1489 0h-334l-121 338h-585l-119 -338h-324l541 1434h385zM532 580h416l-86 241q-73 213 -117 359h-14q-42 -148 -115 -361zM350 1575l244 295h289l243 -295h-241l-58 59q-55 56 -82 95h-12q-25 -36 -82 -93l-57 -61h-244z" />
    <glyph glyph-name="Atilde" unicode="&#xc3;" horiz-adv-x="1495" 
d="M1489 0h-334l-121 338h-585l-119 -338h-324l541 1434h385zM532 580h416l-86 241q-73 213 -117 359h-14q-42 -148 -115 -361zM352 1575q0 133 54 206q52 70 153 70q82 0 184 -45q75 -34 119 -34q30 0 45 18q16 19 17 61h186q0 -133 -53 -203q-53 -69 -156 -69
q-82 0 -184 41q-85 35 -119 35q-57 0 -59 -80h-187z" />
    <glyph glyph-name="Adieresis" unicode="&#xc4;" horiz-adv-x="1495" 
d="M1489 0h-334l-121 338h-585l-119 -338h-324l541 1434h385zM532 580h416l-86 241q-73 213 -117 359h-14q-42 -148 -115 -361zM840 1619q-43 43 -43 103q0 63 43 106q44 44 104 44q64 0 107 -43t43 -107q0 -61 -43 -104t-107 -43q-60 0 -104 44zM427 1618q-44 44 -44 104
t44 104t105 44q64 0 107 -42t43 -106q0 -63 -43 -105t-107 -42q-62 0 -105 43z" />
    <glyph glyph-name="Aring" unicode="&#xc5;" horiz-adv-x="1495" 
d="M1155 0l-121 338h-585l-119 -338h-324l508 1346q-80 69 -80 188q0 122 84 195q83 73 221 73q139 0 222 -73t83 -195q0 -115 -77 -188l522 -1346h-334zM651 1607q-33 -27 -33 -73t33 -73t88 -27q57 0 91 27t34 73t-34 73t-91 27q-55 0 -88 -27zM532 580h416l-86 241
q-73 213 -117 359h-14q-42 -148 -115 -361z" />
    <glyph glyph-name="AE" unicode="&#xc6;" horiz-adv-x="2156" 
d="M1249 618l144 -372h753v-246h-991l-121 338h-585l-119 -338h-324l541 1434h1235v-246h-754l127 -330h770v-240h-676zM532 580h416l-86 241q-73 213 -117 359h-14q-42 -148 -115 -361z" />
    <glyph glyph-name="Ccedilla" unicode="&#xc7;" horiz-adv-x="1497" 
d="M1015 308q95 93 111 249h320q-18 -257 -181 -414t-434 -174q-16 -43 -73 -59v-10h22q91 0 150 -43t59 -111q0 -96 -80 -144q-79 -48 -225 -48q-65 0 -145 4v114q54 -2 123 -2q53 0 86 21q32 20 32 57q0 39 -32 55q-34 17 -84 17q-25 0 -54 -4v82q64 23 80 73
q-195 15 -340 110q-143 94 -220 258q-77 165 -77 380q0 230 87 400q87 169 248 258t380 89q198 0 347 -72t235 -207q86 -134 98 -313h-322q-17 159 -112 251q-97 94 -250 94q-178 0 -282 -133q-103 -131 -103 -367q0 -238 104 -370q105 -134 285 -134q152 0 247 93z" />
    <glyph glyph-name="Egrave" unicode="&#xc8;" horiz-adv-x="1259" 
d="M1208 1434v-246h-778v-330h696v-240h-696v-372h774v-246h-1089v1434h1093zM887 1733l-66 -164l-639 246l78 186z" />
    <glyph glyph-name="Eacute" unicode="&#xc9;" horiz-adv-x="1259" 
d="M1208 1434v-246h-778v-330h696v-240h-696v-372h774v-246h-1089v1434h1093zM1143 1815l-639 -246l-66 164l625 268z" />
    <glyph glyph-name="Ecircumflex" unicode="&#xca;" horiz-adv-x="1259" 
d="M1208 1434v-246h-778v-330h696v-240h-696v-372h774v-246h-1089v1434h1093zM272 1575l244 295h289l244 -295h-242l-57 59q-55 56 -82 95h-13q-25 -36 -82 -93l-57 -61h-244z" />
    <glyph glyph-name="Edieresis" unicode="&#xcb;" horiz-adv-x="1259" 
d="M1208 1434v-246h-778v-330h696v-240h-696v-372h774v-246h-1089v1434h1093zM762 1619q-43 43 -43 103q0 63 43 106q44 44 104 44q64 0 107 -43t43 -107q0 -61 -43 -104t-107 -43q-60 0 -104 44zM349 1618q-44 44 -44 104t44 104t106 44q63 0 106 -42t43 -106
q0 -63 -43 -105q-44 -42 -106 -42q-63 0 -106 43z" />
    <glyph glyph-name="Igrave" unicode="&#xcc;" horiz-adv-x="544" 
d="M115 0v1434h315v-1434h-315zM498 1733l-66 -164l-639 246l78 186z" />
    <glyph glyph-name="Iacute" unicode="&#xcd;" horiz-adv-x="544" 
d="M115 0v1434h315v-1434h-315zM752 1815l-639 -246l-66 164l625 268z" />
    <glyph glyph-name="Icircumflex" unicode="&#xce;" horiz-adv-x="544" 
d="M115 0v1434h315v-1434h-315zM-117 1575l244 295h289l243 -295h-241l-58 59q-51 52 -81 95h-13q-25 -36 -82 -93l-57 -61h-244z" />
    <glyph glyph-name="Idieresis" unicode="&#xcf;" horiz-adv-x="544" 
d="M115 0v1434h315v-1434h-315zM373 1619q-43 43 -43 103q0 63 43 106q44 44 104 44q64 0 107 -43t43 -107q0 -61 -43 -104t-107 -43q-60 0 -104 44zM-40 1618q-44 44 -44 104t44 104t106 44t106 -42q43 -42 43 -106q0 -63 -43 -105q-44 -42 -106 -42q-63 0 -106 43z" />
    <glyph glyph-name="Eth" unicode="&#xd0;" horiz-adv-x="1517" 
d="M1107 1356q165 -78 261 -240t96 -399q0 -367 -202 -542t-533 -175h-571v686h-158v127h158v621h571q213 0 378 -78zM719 246q193 0 307 118q115 120 115 353q0 243 -114 357t-308 114h-248v-375h332v-127h-332v-440h248z" />
    <glyph glyph-name="Ntilde" unicode="&#xd1;" horiz-adv-x="1513" 
d="M414 1024q6 -180 6 -502v-522h-305v1434h346l389 -615l31 -49q131 -209 202 -332l13 2q-6 159 -6 434v560h309v-1434h-338l-361 578q-40 65 -65 104q-145 239 -207 346zM401 1575q0 133 54 206q52 70 153 70q83 0 185 -45q75 -34 118 -34q30 0 45 18q16 19 17 61h186
q0 -133 -53 -203q-52 -69 -156 -69q-82 0 -184 41q-85 35 -119 35q-57 0 -59 -80h-187z" />
    <glyph glyph-name="Ograve" unicode="&#xd2;" horiz-adv-x="1566" 
d="M398 59q-165 90 -255 260q-90 169 -90 400q0 229 90 398q89 168 254 259q163 90 385 90q221 0 386 -90t255 -259t90 -398q0 -231 -90 -400q-90 -170 -255 -260t-386 -90q-219 0 -384 90zM1079 345q109 129 109 374q0 241 -109 371q-108 129 -297 129q-188 0 -296 -129
q-107 -128 -107 -371q0 -248 107 -374q108 -128 296 -128q189 0 297 128zM1012 1733l-66 -164l-639 246l78 186z" />
    <glyph glyph-name="Oacute" unicode="&#xd3;" horiz-adv-x="1566" 
d="M398 59q-165 90 -255 260q-90 169 -90 400q0 229 90 398q89 168 254 259q163 90 385 90q221 0 386 -90t255 -259t90 -398q0 -231 -90 -400q-90 -170 -255 -260t-386 -90q-219 0 -384 90zM1079 345q109 129 109 374q0 241 -109 371q-108 129 -297 129q-188 0 -296 -129
q-107 -128 -107 -371q0 -248 107 -374q108 -128 296 -128q189 0 297 128zM1268 1815l-639 -246l-66 164l625 268z" />
    <glyph glyph-name="Ocircumflex" unicode="&#xd4;" horiz-adv-x="1566" 
d="M398 59q-165 90 -255 260q-90 169 -90 400q0 229 90 398q89 168 254 259q163 90 385 90q221 0 386 -90t255 -259t90 -398q0 -231 -90 -400q-90 -170 -255 -260t-386 -90q-219 0 -384 90zM1079 345q109 129 109 374q0 241 -109 371q-108 129 -297 129q-188 0 -296 -129
q-107 -128 -107 -371q0 -248 107 -374q108 -128 296 -128q189 0 297 128zM397 1575l244 295h289l244 -295h-242l-58 59q-51 52 -81 95h-13q-25 -36 -82 -93l-57 -61h-244z" />
    <glyph glyph-name="Otilde" unicode="&#xd5;" horiz-adv-x="1566" 
d="M398 59q-165 90 -255 260q-90 169 -90 400q0 229 90 398q89 168 254 259q163 90 385 90q221 0 386 -90t255 -259t90 -398q0 -231 -90 -400q-90 -170 -255 -260t-386 -90q-219 0 -384 90zM1079 345q109 129 109 374q0 241 -109 371q-108 129 -297 129q-188 0 -296 -129
q-107 -128 -107 -371q0 -248 107 -374q108 -128 296 -128q189 0 297 128zM401 1575q0 133 54 206q52 70 153 70q83 0 185 -45q75 -34 118 -34q30 0 45 18q16 19 17 61h186q0 -133 -53 -203q-52 -69 -156 -69q-82 0 -184 41q-85 35 -119 35q-57 0 -59 -80h-187z" />
    <glyph glyph-name="Odieresis" unicode="&#xd6;" horiz-adv-x="1566" 
d="M398 59q-165 90 -255 260q-90 169 -90 400q0 229 90 398q89 168 254 259q163 90 385 90q221 0 386 -90t255 -259t90 -398q0 -231 -90 -400q-90 -170 -255 -260t-386 -90q-219 0 -384 90zM1079 345q109 129 109 374q0 241 -109 371q-108 129 -297 129q-188 0 -296 -129
q-107 -128 -107 -371q0 -248 107 -374q108 -128 296 -128q189 0 297 128zM889 1619q-43 43 -43 103q0 63 43 106q44 44 104 44q64 0 107 -43t43 -107q0 -61 -43 -104t-107 -43q-60 0 -104 44zM476 1618q-44 44 -44 104t44 104t106 44t106 -42q43 -42 43 -106q0 -63 -43 -105
q-44 -42 -106 -42q-63 0 -106 43z" />
    <glyph glyph-name="multiply" unicode="&#xd7;" horiz-adv-x="1081" 
d="M817 1182l176 -174l-276 -277l276 -276l-176 -174l-276 276l-279 -276l-174 174l277 276l-277 277l174 174l279 -277z" />
    <glyph glyph-name="Oslash" unicode="&#xd8;" horiz-adv-x="1609" 
d="M1556 1425l-178 -192q166 -197 166 -512q0 -229 -90 -399q-91 -172 -255 -261q-165 -90 -386 -90q-277 0 -467 144l-190 -207l-103 92l195 211q-164 199 -164 510q0 229 90 398q89 168 254 259q163 90 385 90q284 0 467 -143l176 191zM461 440l624 676q-102 105 -272 105
q-188 0 -296 -129q-107 -128 -107 -371q0 -167 51 -281zM1165 1001l-626 -677q105 -105 274 -105q188 0 296 128t108 374q0 159 -52 280z" />
    <glyph glyph-name="Ugrave" unicode="&#xd9;" horiz-adv-x="1449" 
d="M94 1434h314v-881q0 -334 317 -334t317 336v879h314v-897q0 -282 -171 -426t-460 -144q-283 0 -457 147t-174 431v889zM954 1735l-65 -164l-639 246l78 186z" />
    <glyph glyph-name="Uacute" unicode="&#xda;" horiz-adv-x="1449" 
d="M94 1434h314v-881q0 -334 317 -334t317 336v879h314v-897q0 -282 -171 -426t-460 -144q-283 0 -457 147t-174 431v889zM1210 1817l-639 -246l-65 164l624 268z" />
    <glyph glyph-name="Ucircumflex" unicode="&#xdb;" horiz-adv-x="1449" 
d="M94 1434h314v-881q0 -334 317 -334t317 336v879h314v-897q0 -282 -171 -426t-460 -144q-283 0 -457 147t-174 431v889zM340 1577l244 295h288l244 -295h-242l-57 59q-55 56 -82 95h-12q-25 -36 -82 -93l-57 -61h-244z" />
    <glyph glyph-name="Udieresis" unicode="&#xdc;" horiz-adv-x="1449" 
d="M94 1434h314v-881q0 -334 317 -334t317 336v879h314v-897q0 -282 -171 -426t-460 -144q-283 0 -457 147t-174 431v889zM829 1621q-43 43 -43 103q0 63 43 106q44 44 105 44q63 0 106 -43t43 -107q0 -61 -43 -104t-106 -43q-61 0 -105 44zM417 1620q-44 44 -44 104t44 104
t105 44q64 0 107 -42t43 -106q0 -63 -43 -105t-107 -42q-62 0 -105 43z" />
    <glyph glyph-name="Yacute" unicode="&#xdd;" horiz-adv-x="1392" 
d="M1386 1434l-530 -863v-571h-315v571l-535 863h354l111 -183l23 -39q146 -251 204 -362h15q108 208 225 405l104 179h344zM1186 1815l-639 -246l-66 164l625 268z" />
    <glyph glyph-name="Thorn" unicode="&#xde;" horiz-adv-x="1343" 
d="M750 1180q242 0 392 -109q148 -108 148 -346q0 -242 -149 -357q-150 -115 -391 -114l-320 2v-256h-315v1434h315v-254h320zM692 489q134 0 208 54q73 53 73 176q0 120 -73 173q-71 52 -208 52h-262v-455h262z" />
    <glyph glyph-name="germandbls" unicode="&#xdf;" horiz-adv-x="1226" 
d="M786 795q171 -12 279 -111q109 -100 109 -262q0 -215 -141 -323q-140 -107 -371 -107q-72 0 -132 6v225l97 -2q112 0 180 53q67 52 67 152q0 99 -67 153q-68 54 -176 54h-94v194h69q91 0 151 55q58 54 58 152q0 90 -56 142q-58 53 -153 53q-96 0 -157 -59
q-60 -58 -60 -158v-1012h-291v1018q0 147 71 250t188 153q121 52 259 52q125 0 234 -46q106 -45 169 -129q62 -83 62 -192q0 -116 -76 -199t-219 -100v-12z" />
    <glyph glyph-name="agrave" unicode="&#xe0;" horiz-adv-x="1208" 
d="M150 485q105 82 321 80q196 -1 274 33t78 115q0 63 -53 110t-168 47q-118 0 -184 -63q-65 -62 -76 -170h-289q6 125 69 227q64 104 183 164q122 62 295 62q255 0 383 -116q127 -115 127 -298v-676h-279l-8 330h-10q-21 -176 -131 -269q-110 -94 -281 -94q-160 0 -259 75
t-99 218q0 142 107 225zM380 191q40 -33 122 -33q85 0 159 41q75 41 118 108q44 68 44 144v161h-10q-11 -68 -42 -108q-33 -42 -100 -64q-69 -22 -192 -30q-66 -5 -103 -37q-38 -33 -38 -88q0 -59 42 -94zM838 1356l-66 -164l-639 246l78 186z" />
    <glyph glyph-name="aacute" unicode="&#xe1;" horiz-adv-x="1208" 
d="M150 485q105 82 321 80q196 -1 274 33t78 115q0 63 -53 110t-168 47q-118 0 -184 -63q-65 -62 -76 -170h-289q6 125 69 227q64 104 183 164q122 62 295 62q255 0 383 -116q127 -115 127 -298v-676h-279l-8 330h-10q-21 -176 -131 -269q-110 -94 -281 -94q-160 0 -259 75
t-99 218q0 142 107 225zM380 191q40 -33 122 -33q85 0 159 41q75 41 118 108q44 68 44 144v161h-10q-11 -68 -42 -108q-33 -42 -100 -64q-69 -22 -192 -30q-66 -5 -103 -37q-38 -33 -38 -88q0 -59 42 -94zM1094 1438l-639 -246l-66 164l625 268z" />
    <glyph glyph-name="acircumflex" unicode="&#xe2;" horiz-adv-x="1208" 
d="M150 485q105 82 321 80q196 -1 274 33t78 115q0 63 -53 110t-168 47q-118 0 -184 -63q-65 -62 -76 -170h-289q6 125 69 227q64 104 183 164q122 62 295 62q255 0 383 -116q127 -115 127 -298v-676h-279l-8 330h-10q-21 -176 -131 -269q-110 -94 -281 -94q-160 0 -259 75
t-99 218q0 142 107 225zM380 191q40 -33 122 -33q85 0 159 41q75 41 118 108q44 68 44 144v161h-10q-11 -68 -42 -108q-33 -42 -100 -64q-69 -22 -192 -30q-66 -5 -103 -37q-38 -33 -38 -88q0 -59 42 -94zM223 1198l244 295h289l243 -295h-241l-58 59q-55 56 -82 95h-12
q-23 -33 -82 -92l-57 -62h-244z" />
    <glyph glyph-name="atilde" unicode="&#xe3;" horiz-adv-x="1208" 
d="M150 485q105 82 321 80q196 -1 274 33t78 115q0 63 -53 110t-168 47q-118 0 -184 -63q-65 -62 -76 -170h-289q6 125 69 227q64 104 183 164q122 62 295 62q255 0 383 -116q127 -115 127 -298v-676h-279l-8 330h-10q-21 -176 -131 -269q-110 -94 -281 -94q-160 0 -259 75
t-99 218q0 142 107 225zM380 191q40 -33 122 -33q85 0 159 41q75 41 118 108q44 68 44 144v161h-10q-11 -68 -42 -108q-33 -42 -100 -64q-69 -22 -192 -30q-66 -5 -103 -37q-38 -33 -38 -88q0 -59 42 -94zM231 1198q0 134 55 206q54 71 154 71q81 0 183 -45q78 -35 118 -35
q30 0 45 18q16 19 17 62h186q0 -134 -53 -204q-52 -69 -156 -69q-82 0 -184 41q-85 35 -119 35q-57 0 -59 -80h-187z" />
    <glyph glyph-name="adieresis" unicode="&#xe4;" horiz-adv-x="1208" 
d="M150 485q105 82 321 80q196 -1 274 33t78 115q0 63 -53 110t-168 47q-118 0 -184 -63q-65 -62 -76 -170h-289q6 125 69 227q64 104 183 164q122 62 295 62q255 0 383 -116q127 -115 127 -298v-676h-279l-8 330h-10q-21 -176 -131 -269q-110 -94 -281 -94q-160 0 -259 75
t-99 218q0 142 107 225zM380 191q40 -33 122 -33q85 0 159 41q75 41 118 108q44 68 44 144v161h-10q-11 -68 -42 -108q-33 -42 -100 -64q-69 -22 -192 -30q-66 -5 -103 -37q-38 -33 -38 -88q0 -59 42 -94zM713 1242q-43 43 -43 104q0 62 43 105q44 44 104 44q64 0 107 -43
t43 -106q0 -62 -43 -105t-107 -43q-60 0 -104 44zM300 1241q-44 44 -44 105q0 59 44 103t105 44q63 0 107 -42q43 -42 43 -105q0 -64 -43 -106t-107 -42q-62 0 -105 43z" />
    <glyph glyph-name="aring" unicode="&#xe5;" horiz-adv-x="1208" 
d="M150 485q105 82 321 80q196 -1 274 33t78 115q0 63 -53 110t-168 47q-118 0 -184 -63q-65 -62 -76 -170h-289q6 125 69 227q64 104 183 164q122 62 295 62q255 0 383 -116q127 -115 127 -298v-676h-279l-8 330h-10q-21 -176 -131 -269q-110 -94 -281 -94q-160 0 -259 75
t-99 218q0 142 107 225zM380 191q40 -33 122 -33q85 0 159 41q75 41 118 108q44 68 44 144v161h-10q-11 -68 -42 -108q-33 -42 -100 -64q-69 -22 -192 -30q-66 -5 -103 -37q-38 -33 -38 -88q0 -59 42 -94zM391 1272q-84 74 -84 194q0 122 84 195q85 74 221 74q137 0 222 -74
q83 -73 83 -195q0 -121 -83 -194q-85 -74 -222 -74q-136 0 -221 74zM703 1394q34 27 34 72q0 46 -34 73q-36 28 -91 28q-53 0 -89 -28q-34 -27 -34 -73q0 -45 34 -72q36 -28 89 -28q55 0 91 28z" />
    <glyph glyph-name="ae" unicode="&#xe6;" horiz-adv-x="1980" 
d="M143 42q-100 75 -100 218q0 142 107 225q105 82 321 80q196 -1 274 33t78 115q0 63 -53 110t-166 47q-123 0 -185 -62q-64 -64 -71 -171h-289q6 125 67 229q61 103 180 163q122 61 296 61q144 0 242 -40q97 -40 157 -128h11q68 90 159 129t218 39q163 0 284 -72
q122 -72 185 -194t63 -271v-84h-807q1 -134 76 -209q74 -74 199 -74q110 0 181 51q69 49 87 130h256q-17 -131 -94 -220q-78 -90 -189 -135t-227 -45q-132 0 -240 38q-106 37 -178 114q-42 41 -74 94q-33 55 -51 117h-10q-30 -173 -155 -268t-294 -95q-157 0 -258 75z
M1636 627q-8 115 -78 179t-182 64q-109 0 -181 -63q-74 -64 -81 -180h522zM662 199q74 41 117 108q44 68 44 144v161h-10q-11 -68 -42 -108q-33 -42 -100 -64q-69 -22 -192 -30q-66 -5 -103 -37q-38 -33 -38 -88q0 -60 43 -94q42 -33 121 -33q86 0 160 41z" />
    <glyph glyph-name="ccedilla" unicode="&#xe7;" horiz-adv-x="1157" 
d="M772 253q60 64 64 185h288q-7 -206 -136 -329q-128 -122 -324 -140q-16 -42 -74 -59v-10h22q91 0 150 -43t59 -111q0 -96 -80 -144q-79 -48 -225 -48q-65 0 -145 4v114q54 -2 123 -2q53 0 86 21q32 20 32 57q0 39 -32 55q-34 17 -84 17q-25 0 -54 -4v82q68 24 80 73
q-208 24 -339 168q-130 143 -130 398q0 169 71 294q72 127 195 192q126 67 283 67q152 0 267 -57q118 -58 183 -162q66 -105 72 -246h-288q-1 116 -66 181q-62 62 -168 62q-119 0 -185 -87q-67 -88 -67 -240q0 -171 67 -262t185 -91q110 0 170 65z" />
    <glyph glyph-name="egrave" unicode="&#xe8;" horiz-adv-x="1198" 
d="M1139 469h-807q1 -130 82 -207q79 -76 204 -76q96 0 167 51q67 48 89 130h254q-17 -131 -94 -220q-79 -91 -188 -135q-111 -45 -228 -45q-260 0 -413 148q-152 147 -152 417q0 165 68 293q67 127 190 196t289 69q164 0 287 -72q122 -71 187 -194q65 -122 65 -271v-84z
M412 807q-73 -63 -80 -180h520q-7 114 -79 179q-70 64 -179 64q-110 0 -182 -63zM825 1356l-65 -164l-639 246l78 186z" />
    <glyph glyph-name="eacute" unicode="&#xe9;" horiz-adv-x="1198" 
d="M1139 469h-807q1 -130 82 -207q79 -76 204 -76q96 0 167 51q67 48 89 130h254q-17 -131 -94 -220q-79 -91 -188 -135q-111 -45 -228 -45q-260 0 -413 148q-152 147 -152 417q0 165 68 293q67 127 190 196t289 69q164 0 287 -72q122 -71 187 -194q65 -122 65 -271v-84z
M412 807q-73 -63 -80 -180h520q-7 114 -79 179q-70 64 -179 64q-110 0 -182 -63zM1081 1438l-639 -246l-65 164l624 268z" />
    <glyph glyph-name="ecircumflex" unicode="&#xea;" horiz-adv-x="1198" 
d="M1139 469h-807q1 -130 82 -207q79 -76 204 -76q96 0 167 51q67 48 89 130h254q-17 -131 -94 -220q-79 -91 -188 -135q-111 -45 -228 -45q-260 0 -413 148q-152 147 -152 417q0 165 68 293q67 127 190 196t289 69q164 0 287 -72q122 -71 187 -194q65 -122 65 -271v-84z
M412 807q-73 -63 -80 -180h520q-7 114 -79 179q-70 64 -179 64q-110 0 -182 -63zM211 1198l244 295h288l244 -295h-242l-57 59q-55 56 -82 95h-12q-23 -33 -82 -92l-57 -62h-244z" />
    <glyph glyph-name="edieresis" unicode="&#xeb;" horiz-adv-x="1198" 
d="M1139 469h-807q1 -130 82 -207q79 -76 204 -76q96 0 167 51q67 48 89 130h254q-17 -131 -94 -220q-79 -91 -188 -135q-111 -45 -228 -45q-260 0 -413 148q-152 147 -152 417q0 165 68 293q67 127 190 196t289 69q164 0 287 -72q122 -71 187 -194q65 -122 65 -271v-84z
M412 807q-73 -63 -80 -180h520q-7 114 -79 179q-70 64 -179 64q-110 0 -182 -63zM702 1242q-43 43 -43 104q0 62 43 105q44 44 105 44q63 0 106 -43t43 -106q0 -62 -43 -105t-106 -43q-61 0 -105 44zM290 1241q-44 44 -44 105q0 59 44 103t105 44q63 0 107 -42
q43 -42 43 -105q0 -64 -43 -106q-44 -42 -107 -42q-62 0 -105 43z" />
    <glyph glyph-name="igrave" unicode="&#xec;" horiz-adv-x="491" 
d="M98 0v1057h291v-1057h-291zM469 1356l-66 -164l-639 246l78 186z" />
    <glyph glyph-name="iacute" unicode="&#xed;" horiz-adv-x="491" 
d="M98 0v1057h291v-1057h-291zM723 1438l-639 -246l-66 164l625 268z" />
    <glyph glyph-name="icircumflex" unicode="&#xee;" horiz-adv-x="491" 
d="M98 0v1057h291v-1057h-291zM-145 1198l243 295h289l244 -295h-242l-57 59q-55 56 -82 95h-12q-23 -33 -82 -92l-58 -62h-243z" />
    <glyph glyph-name="idieresis" unicode="&#xef;" horiz-adv-x="491" 
d="M98 0v1057h291v-1057h-291zM344 1242q-43 43 -43 104q0 62 43 105q44 44 105 44q63 0 106 -43t43 -106q0 -62 -43 -105t-106 -43q-61 0 -105 44zM-69 1241q-44 44 -44 105q0 59 44 103t106 44q63 0 106 -42t43 -105q0 -64 -43 -106t-106 -42t-106 43z" />
    <glyph glyph-name="eth" unicode="&#xf0;" horiz-adv-x="1249" 
d="M1196 532q0 -184 -78 -311t-208 -190q-133 -64 -283 -64q-179 0 -309 72q-129 71 -197 193t-68 270q0 154 60 272q61 121 163 185q107 67 236 67q128 0 226 -74q99 -75 145 -204l12 2q-16 84 -60 164q-40 73 -118 167q-18 23 -101 111l-321 -92v123l225 65l-155 146h362
l68 -68l280 82v-123l-192 -55l22 -27q291 -338 291 -711zM831 272q72 84 72 242q0 162 -72 246t-200 84q-135 0 -210 -87t-75 -243q0 -154 75 -240t210 -86q128 0 200 84z" />
    <glyph glyph-name="ntilde" unicode="&#xf1;" horiz-adv-x="1280" 
d="M986 1041q90 -49 142 -140q54 -94 54 -219v-682h-293v594q0 127 -64 197q-63 69 -176 69q-120 0 -189 -81t-69 -226v-553h-293v1057h283l10 -322h12q22 161 133 258t255 97q105 0 195 -49zM260 1198q0 135 53 206t154 71q82 0 184 -45q78 -35 119 -35q30 0 45 18
q14 17 16 62h187q0 -134 -53 -204q-53 -69 -156 -69q-82 0 -184 41q-85 35 -119 35q-58 0 -60 -80h-186z" />
    <glyph glyph-name="ograve" unicode="&#xf2;" horiz-adv-x="1259" 
d="M339 36q-134 70 -209 197q-77 130 -77 299q0 165 77 293q76 126 209 196q132 69 292 69q161 0 291 -69q131 -69 207 -196q77 -128 77 -293q0 -171 -76 -299q-76 -129 -207 -197q-132 -69 -292 -69t-292 69zM837 276q74 87 74 256q0 166 -74 250q-75 86 -206 86
q-133 0 -208 -86t-75 -250q0 -168 75 -256t208 -88q131 0 206 88zM856 1356l-65 -164l-639 246l77 186z" />
    <glyph glyph-name="oacute" unicode="&#xf3;" horiz-adv-x="1259" 
d="M339 36q-134 70 -209 197q-77 130 -77 299q0 165 77 293q76 126 209 196q132 69 292 69q161 0 291 -69q131 -69 207 -196q77 -128 77 -293q0 -171 -76 -299q-76 -129 -207 -197q-132 -69 -292 -69t-292 69zM837 276q74 87 74 256q0 166 -74 250q-75 86 -206 86
q-133 0 -208 -86t-75 -250q0 -168 75 -256t208 -88q131 0 206 88zM1110 1438l-639 -246l-65 164l624 268z" />
    <glyph glyph-name="ocircumflex" unicode="&#xf4;" horiz-adv-x="1259" 
d="M339 36q-134 70 -209 197q-77 130 -77 299q0 165 77 293q76 126 209 196q132 69 292 69q161 0 291 -69q131 -69 207 -196q77 -128 77 -293q0 -171 -76 -299q-76 -129 -207 -197q-132 -69 -292 -69t-292 69zM837 276q74 87 74 256q0 166 -74 250q-75 86 -206 86
q-133 0 -208 -86t-75 -250q0 -168 75 -256t208 -88q131 0 206 88zM242 1198l243 295h289l244 -295h-242l-57 59q-55 56 -82 95h-12q-23 -33 -82 -92l-58 -62h-243z" />
    <glyph glyph-name="otilde" unicode="&#xf5;" horiz-adv-x="1259" 
d="M339 36q-134 70 -209 197q-77 130 -77 299q0 165 77 293q76 126 209 196q132 69 292 69q161 0 291 -69q131 -69 207 -196q77 -128 77 -293q0 -171 -76 -299q-76 -129 -207 -197q-132 -69 -292 -69t-292 69zM837 276q74 87 74 256q0 166 -74 250q-75 86 -206 86
q-133 0 -208 -86t-75 -250q0 -168 75 -256t208 -88q131 0 206 88zM244 1198q0 135 53 206t154 71q82 0 184 -45q78 -35 119 -35q30 0 45 18q14 17 16 62h186q0 -134 -53 -204q-52 -69 -155 -69q-83 0 -185 41q-85 35 -119 35q-57 0 -59 -80h-186z" />
    <glyph glyph-name="odieresis" unicode="&#xf6;" horiz-adv-x="1259" 
d="M339 36q-134 70 -209 197q-77 130 -77 299q0 165 77 293q76 126 209 196q132 69 292 69q161 0 291 -69q131 -69 207 -196q77 -128 77 -293q0 -171 -76 -299q-76 -129 -207 -197q-132 -69 -292 -69t-292 69zM837 276q74 87 74 256q0 166 -74 250q-75 86 -206 86
q-133 0 -208 -86t-75 -250q0 -168 75 -256t208 -88q131 0 206 88zM731 1242q-43 43 -43 104q0 62 43 105q44 44 105 44q63 0 106 -43t43 -106q0 -62 -43 -105t-106 -43q-61 0 -105 44zM318 1241q-44 44 -44 105q0 59 44 103t106 44t106 -42q43 -42 43 -105q0 -64 -43 -106
q-44 -42 -106 -42q-63 0 -106 43z" />
    <glyph glyph-name="divide" unicode="&#xf7;" horiz-adv-x="1122" 
d="M457 1023q-41 38 -41 97q0 57 41 95t104 38q65 0 108 -38q42 -37 42 -95q0 -57 -42 -96t-108 -39q-63 0 -104 38zM63 852h996v-244h-996v244zM457 245q-41 38 -41 95q0 59 41 97t104 38q65 0 108 -38q42 -37 42 -97q0 -58 -43 -95q-44 -38 -107 -38t-104 38z" />
    <glyph glyph-name="oslash" unicode="&#xf8;" horiz-adv-x="1277" 
d="M1219 1057l-140 -150q138 -152 138 -375q0 -169 -77 -299q-75 -127 -209 -197q-132 -69 -292 -69q-193 0 -348 103l-141 -152l-91 82l142 150q-140 152 -140 382q0 165 77 293q76 126 209 196q132 69 292 69q197 0 348 -103l141 152zM387 350l432 459q-71 59 -180 59
q-133 0 -208 -86t-75 -250q0 -106 31 -182zM891 709l-432 -461q72 -60 180 -60q133 0 208 88t75 256q0 101 -31 177z" />
    <glyph glyph-name="ugrave" unicode="&#xf9;" horiz-adv-x="1280" 
d="M889 1057h293v-1057h-285l-8 322h-12q-15 -112 -71 -189q-58 -80 -140 -123q-83 -43 -179 -43q-107 0 -195 48q-87 47 -141 141q-53 92 -53 219v682h291v-594q0 -132 63 -199t179 -67q117 0 187 82q71 83 71 225v553zM866 1356l-65 -164l-639 246l78 186z" />
    <glyph glyph-name="uacute" unicode="&#xfa;" horiz-adv-x="1280" 
d="M889 1057h293v-1057h-285l-8 322h-12q-15 -112 -71 -189q-58 -80 -140 -123q-83 -43 -179 -43q-107 0 -195 48q-87 47 -141 141q-53 92 -53 219v682h291v-594q0 -132 63 -199t179 -67q117 0 187 82q71 83 71 225v553zM1120 1438l-639 -246l-65 164l624 268z" />
    <glyph glyph-name="ucircumflex" unicode="&#xfb;" horiz-adv-x="1280" 
d="M889 1057h293v-1057h-285l-8 322h-12q-15 -112 -71 -189q-58 -80 -140 -123q-83 -43 -179 -43q-107 0 -195 48q-87 47 -141 141q-53 92 -53 219v682h291v-594q0 -132 63 -199t179 -67q117 0 187 82q71 83 71 225v553zM252 1198l244 295h288l244 -295h-242l-57 59
q-55 56 -82 95h-12q-23 -33 -82 -92l-57 -62h-244z" />
    <glyph glyph-name="udieresis" unicode="&#xfc;" horiz-adv-x="1280" 
d="M889 1057h293v-1057h-285l-8 322h-12q-15 -112 -71 -189q-58 -80 -140 -123q-83 -43 -179 -43q-107 0 -195 48q-87 47 -141 141q-53 92 -53 219v682h291v-594q0 -132 63 -199t179 -67q117 0 187 82q71 83 71 225v553zM741 1242q-43 43 -43 104q0 62 43 105q44 44 105 44
q63 0 106 -43t43 -106q0 -62 -43 -105t-106 -43q-61 0 -105 44zM329 1241q-44 44 -44 105q0 59 44 103t105 44q64 0 107 -42t43 -105q0 -64 -43 -106t-107 -42q-62 0 -105 43z" />
    <glyph glyph-name="yacute" unicode="&#xfd;" horiz-adv-x="1126" 
d="M571 256q53 184 158 520l19 55l69 226h305l-401 -1084q-56 -146 -127 -226q-73 -82 -169 -113t-243 -31q-47 0 -131 4v227q35 -4 103 -4q94 0 138 29q46 30 79 104l16 41l-383 1053h315l72 -232l37 -123q71 -227 133 -446h10zM1047 1438l-639 -246l-66 164l625 268z" />
    <glyph glyph-name="thorn" unicode="&#xfe;" horiz-adv-x="1292" 
d="M1023 1021q102 -69 159 -196t57 -297t-57 -297q-56 -125 -159 -195q-102 -69 -232 -69q-134 0 -240 83q-105 82 -150 245h-12v-672h-291v1811h291v-674h12q45 165 150 247q106 83 240 83q130 0 232 -69zM870 265q76 94 76 263q0 170 -76 264q-77 95 -202 95
q-126 0 -202 -84q-77 -85 -77 -213v-125q0 -126 77 -211q76 -84 202 -84q125 0 202 95z" />
    <glyph glyph-name="ydieresis" unicode="&#xff;" horiz-adv-x="1126" 
d="M571 256q53 184 158 520l19 55l69 226h305l-401 -1084q-56 -146 -127 -226q-73 -82 -169 -113t-243 -31q-47 0 -131 4v227q35 -4 103 -4q94 0 138 29q46 30 79 104l16 41l-383 1053h315l72 -232l37 -123q71 -227 133 -446h10zM668 1242q-43 43 -43 104q0 62 43 105
q44 44 104 44q64 0 107 -43t43 -106q0 -62 -43 -105t-107 -43q-60 0 -104 44zM255 1241q-44 44 -44 105q0 59 44 103t105 44q64 0 107 -42t43 -105q0 -64 -43 -106q-44 -42 -107 -42q-62 0 -105 43z" />
    <glyph glyph-name="Amacron" unicode="&#x100;" horiz-adv-x="1495" 
d="M1489 0h-334l-121 338h-585l-119 -338h-324l541 1434h385zM532 580h416l-86 241q-73 213 -117 359h-14q-42 -148 -115 -361zM1143 1575h-807v197h807v-197z" />
    <glyph glyph-name="amacron" unicode="&#x101;" horiz-adv-x="1208" 
d="M150 485q105 82 321 80q196 -1 274 33t78 115q0 63 -53 110t-168 47q-118 0 -184 -63q-65 -62 -76 -170h-289q6 125 69 227q64 104 183 164q122 62 295 62q255 0 383 -116q127 -115 127 -298v-676h-279l-8 330h-10q-21 -176 -131 -269q-110 -94 -281 -94q-160 0 -259 75
t-99 218q0 142 107 225zM380 191q40 -33 122 -33q85 0 159 41q75 41 118 108q44 68 44 144v161h-10q-11 -68 -42 -108q-33 -42 -100 -64q-69 -22 -192 -30q-66 -5 -103 -37q-38 -33 -38 -88q0 -59 42 -94zM961 1198h-697v197h697v-197z" />
    <glyph glyph-name="Abreve" unicode="&#x102;" horiz-adv-x="1495" 
d="M1489 0h-334l-121 338h-585l-119 -338h-324l541 1434h385zM532 580h416l-86 241q-73 213 -117 359h-14q-42 -148 -115 -361zM501 1656q-96 82 -118 224h215q7 -61 45 -94t96 -33q60 0 96 33t46 94h215q-24 -145 -119 -225t-238 -80t-238 81z" />
    <glyph glyph-name="abreve" unicode="&#x103;" horiz-adv-x="1208" 
d="M150 485q105 82 321 80q196 -1 274 33t78 115q0 63 -53 110t-168 47q-118 0 -184 -63q-65 -62 -76 -170h-289q6 125 69 227q64 104 183 164q122 62 295 62q255 0 383 -116q127 -115 127 -298v-676h-279l-8 330h-10q-21 -176 -131 -269q-110 -94 -281 -94q-160 0 -259 75
t-99 218q0 142 107 225zM380 191q40 -33 122 -33q85 0 159 41q75 41 118 108q44 68 44 144v161h-10q-11 -68 -42 -108q-33 -42 -100 -64q-69 -22 -192 -30q-66 -5 -103 -37q-38 -33 -38 -88q0 -59 42 -94zM374 1279q-96 82 -118 224h215q7 -61 45 -94q37 -33 96 -33
q60 0 96 33t46 94h215q-24 -145 -119 -225t-238 -80q-144 0 -238 81z" />
    <glyph glyph-name="Aogonek" unicode="&#x104;" horiz-adv-x="1495" 
d="M1489 0h-334l-121 338h-585l-119 -338h-324l541 1434h385zM532 580h416l-86 241q-73 213 -117 359h-14q-42 -148 -115 -361zM1146 -385q-79 40 -79 137q0 88 86 154q84 65 242 86v8h94q-201 -91 -201 -182q0 -76 115 -76q35 0 86 4v-162q-20 -2 -56 -6q-33 -4 -67 -4
q-140 0 -220 41z" />
    <glyph glyph-name="aogonek" unicode="&#x105;" horiz-adv-x="1208" 
d="M1110 0q-201 -91 -201 -182q0 -76 115 -76q35 0 86 4v-162q-20 -2 -56 -6q-33 -4 -67 -4q-140 0 -220 41q-79 40 -79 137q0 88 86 154q84 65 242 86v8h-185l-8 330h-10q-21 -176 -131 -269q-110 -94 -281 -94q-160 0 -259 75t-99 218q0 142 107 225q105 82 321 80
q196 -1 274 33t78 115q0 63 -53 110t-168 47q-118 0 -184 -63q-65 -62 -76 -170h-289q6 125 69 227q64 104 183 164q122 62 295 62q255 0 383 -116q127 -115 127 -298v-676zM823 612h-10q-11 -68 -42 -108q-33 -42 -100 -64q-69 -22 -192 -30q-66 -5 -103 -37
q-38 -33 -38 -88q0 -59 42 -94q40 -33 122 -33q86 0 160 41t117 108q44 68 44 144v161z" />
    <glyph glyph-name="Cacute" unicode="&#x106;" horiz-adv-x="1497" 
d="M1446 557q-12 -177 -98 -311q-85 -133 -234 -206t-346 -73q-220 0 -380 90q-161 90 -248 260t-87 402q0 230 87 400q87 169 248 258t380 89q198 0 347 -72t235 -207q86 -134 98 -313h-322q-17 159 -112 251q-97 94 -250 94q-178 0 -282 -133q-103 -131 -103 -367
q0 -238 104 -370q105 -134 285 -134q152 0 247 93t111 249h320zM1247 1815l-639 -246l-65 164l624 268z" />
    <glyph glyph-name="cacute" unicode="&#x107;" horiz-adv-x="1157" 
d="M124 831q72 127 195 192q126 67 283 67q152 0 267 -57q118 -58 183 -162q66 -105 72 -246h-288q-1 116 -66 181q-62 62 -168 62q-119 0 -185 -87q-67 -88 -67 -240q0 -171 67 -262t185 -91q110 0 170 65q60 64 64 185h288q-5 -154 -74 -257q-70 -105 -189 -159
q-121 -55 -259 -55q-154 0 -279 63q-126 64 -197 190q-73 129 -73 317q0 169 71 294zM1083 1438l-639 -246l-65 164l625 268z" />
    <glyph glyph-name="Cdotaccent" unicode="&#x10a;" horiz-adv-x="1497" 
d="M1446 557q-12 -177 -98 -311q-85 -133 -234 -206t-346 -73q-220 0 -380 90q-161 90 -248 260t-87 402q0 230 87 400q87 169 248 258t380 89q198 0 347 -72t235 -207q86 -134 98 -313h-322q-17 159 -112 251q-97 94 -250 94q-178 0 -282 -133q-103 -131 -103 -367
q0 -238 104 -370q105 -134 285 -134q152 0 247 93t111 249h320zM646 1624q-50 50 -50 119q0 71 51 120q52 50 121 50q72 0 121 -49t49 -121q0 -70 -49 -119t-121 -49q-73 0 -122 49z" />
    <glyph glyph-name="cdotaccent" unicode="&#x10b;" horiz-adv-x="1157" 
d="M124 831q72 127 195 192q126 67 283 67q152 0 267 -57q118 -58 183 -162q66 -105 72 -246h-288q-1 116 -66 181q-62 62 -168 62q-119 0 -185 -87q-67 -88 -67 -240q0 -171 67 -262t185 -91q110 0 170 65q60 64 64 185h288q-5 -154 -74 -257q-70 -105 -189 -159
q-121 -55 -259 -55q-154 0 -279 63q-126 64 -197 190q-73 129 -73 317q0 169 71 294zM480 1247q-50 50 -50 119q0 70 51 120q52 50 121 50q72 0 121 -49t49 -121q0 -70 -49 -119t-121 -49q-73 0 -122 49z" />
    <glyph glyph-name="Ccaron" unicode="&#x10c;" horiz-adv-x="1497" 
d="M1446 557q-12 -177 -98 -311q-85 -133 -234 -206t-346 -73q-220 0 -380 90q-161 90 -248 260t-87 402q0 230 87 400q87 169 248 258t380 89q198 0 347 -72t235 -207q86 -134 98 -313h-322q-17 159 -112 251q-97 94 -250 94q-178 0 -282 -133q-103 -131 -103 -367
q0 -238 104 -370q105 -134 285 -134q152 0 247 93t111 249h320zM379 1870h244l57 -62q59 -59 82 -92h12q25 35 82 94l57 60h242l-244 -295h-288z" />
    <glyph glyph-name="ccaron" unicode="&#x10d;" horiz-adv-x="1157" 
d="M124 831q72 127 195 192q126 67 283 67q152 0 267 -57q118 -58 183 -162q66 -105 72 -246h-288q-1 116 -66 181q-62 62 -168 62q-119 0 -185 -87q-67 -88 -67 -240q0 -171 67 -262t185 -91q110 0 170 65q60 64 64 185h288q-5 -154 -74 -257q-70 -105 -189 -159
q-121 -55 -259 -55q-154 0 -279 63q-126 64 -197 190q-73 129 -73 317q0 169 71 294zM213 1493h244l57 -61q57 -57 82 -93h12q27 39 82 95l58 59h241l-244 -295h-288z" />
    <glyph glyph-name="Dcaron" unicode="&#x10e;" horiz-adv-x="1474" 
d="M1065 1356q166 -78 261 -239t95 -400q0 -367 -201 -542q-200 -175 -532 -175h-573v1434h573q210 0 377 -78zM678 246q192 0 306 118t114 353q0 243 -114 357t-308 114h-246v-942h248zM371 1870h243l58 -62q59 -59 82 -92h12q25 35 82 94l57 60h242l-244 -295h-289z" />
    <glyph glyph-name="dcaron" unicode="&#x10f;" horiz-adv-x="1622" 
d="M903 1434h291v-1434h-281l-10 293h-10q-45 -162 -151 -245t-240 -83q-130 0 -232 69q-103 70 -159 195q-58 130 -58 295q0 168 58 298q57 128 159 197q101 68 232 68q136 0 240 -83q106 -85 151 -246h10v676zM827 251q76 82 76 212v125q0 130 -76 213q-77 84 -200 84
q-127 0 -204 -95t-77 -266q0 -166 77 -261t204 -95q123 0 200 83zM1470 868h-161l67 566h256z" />
    <glyph glyph-name="Dcroat" unicode="&#x110;" horiz-adv-x="1517" 
d="M1107 1356q165 -78 261 -240t96 -399q0 -367 -202 -542t-533 -175h-571v686h-158v127h158v621h571q213 0 378 -78zM719 246q193 0 307 118q115 120 115 353q0 243 -114 357t-308 114h-248v-375h332v-127h-332v-440h248z" />
    <glyph glyph-name="dcroat" unicode="&#x111;" horiz-adv-x="1347" 
d="M1348 1300v-118h-154v-1182h-281l-10 293h-10q-45 -162 -151 -245t-240 -83q-130 0 -232 69q-103 70 -159 195q-58 130 -58 295q0 168 58 298q57 128 159 197q101 68 232 68q136 0 240 -83q106 -85 151 -246h10v424h-309v118h309v134h291v-134h154zM827 251q76 82 76 212
v125q0 130 -76 213q-77 84 -200 84q-127 0 -204 -95t-77 -266q0 -166 77 -261t204 -95q123 0 200 83z" />
    <glyph glyph-name="Emacron" unicode="&#x112;" horiz-adv-x="1259" 
d="M1208 1434v-246h-778v-330h696v-240h-696v-372h774v-246h-1089v1434h1093zM1010 1575h-697v197h697v-197z" />
    <glyph glyph-name="emacron" unicode="&#x113;" horiz-adv-x="1198" 
d="M1139 469h-807q1 -130 82 -207q79 -76 204 -76q96 0 167 51q67 48 89 130h254q-17 -131 -94 -220q-79 -91 -188 -135q-111 -45 -228 -45q-260 0 -413 148q-152 147 -152 417q0 165 68 293q67 127 190 196t289 69q164 0 287 -72q122 -71 187 -194q65 -122 65 -271v-84z
M412 807q-73 -63 -80 -180h520q-7 114 -79 179q-70 64 -179 64q-110 0 -182 -63zM948 1198h-696v197h696v-197z" />
    <glyph glyph-name="Ebreve" unicode="&#x114;" horiz-adv-x="1259" 
d="M1208 1434v-246h-778v-330h696v-240h-696v-372h774v-246h-1089v1434h1093zM423 1656q-96 82 -118 224h215q7 -61 45 -94q37 -33 97 -33q59 0 95 33t46 94h215q-24 -145 -119 -225t-237 -80q-144 0 -239 81z" />
    <glyph glyph-name="ebreve" unicode="&#x115;" horiz-adv-x="1198" 
d="M1139 469h-807q1 -130 82 -207q79 -76 204 -76q96 0 167 51q67 48 89 130h254q-17 -131 -94 -220q-79 -91 -188 -135q-111 -45 -228 -45q-260 0 -413 148q-152 147 -152 417q0 165 68 293q67 127 190 196t289 69q164 0 287 -72q122 -71 187 -194q65 -122 65 -271v-84z
M412 807q-73 -63 -80 -180h520q-7 114 -79 179q-70 64 -179 64q-110 0 -182 -63zM361 1279q-95 81 -117 224h215q7 -61 45 -94t96 -33q59 0 95 33t46 94h215q-24 -146 -118 -225q-95 -80 -238 -80q-144 0 -239 81z" />
    <glyph glyph-name="Edotaccent" unicode="&#x116;" horiz-adv-x="1259" 
d="M1208 1434v-246h-778v-330h696v-240h-696v-372h774v-246h-1089v1434h1093zM540 1624q-51 51 -51 119q0 70 52 120t121 50q71 0 120 -49t49 -121q0 -70 -49 -119t-120 -49q-73 0 -122 49z" />
    <glyph glyph-name="edotaccent" unicode="&#x117;" horiz-adv-x="1198" 
d="M1139 469h-807q1 -130 82 -207q79 -76 204 -76q96 0 167 51q67 48 89 130h254q-17 -131 -94 -220q-79 -91 -188 -135q-111 -45 -228 -45q-260 0 -413 148q-152 147 -152 417q0 165 68 293q67 127 190 196t289 69q164 0 287 -72q122 -71 187 -194q65 -122 65 -271v-84z
M412 807q-73 -63 -80 -180h520q-7 114 -79 179q-70 64 -179 64q-110 0 -182 -63zM480 1247q-50 50 -50 119q0 70 51 120q52 50 121 50q72 0 121 -49t49 -121q0 -70 -49 -119t-121 -49q-73 0 -122 49z" />
    <glyph glyph-name="Eogonek" unicode="&#x118;" horiz-adv-x="1259" 
d="M1208 1434v-246h-778v-330h696v-240h-696v-372h774v-246h-1089v1434h1093zM861 -385q-79 40 -79 137q0 88 86 154q84 65 242 86v8h94q-200 -91 -200 -182q0 -76 114 -76q35 0 86 4v-162q-20 -2 -56 -6q-33 -4 -67 -4q-140 0 -220 41z" />
    <glyph glyph-name="eogonek" unicode="&#x119;" horiz-adv-x="1198" 
d="M1139 469h-807q1 -130 82 -207q79 -76 204 -76q96 0 167 51q67 48 89 130h254q-18 -149 -116 -244q-99 -96 -238 -135q-93 -44 -136 -89q-42 -43 -42 -83q0 -74 117 -74q37 0 84 4v-162q-50 -10 -129 -10q-134 0 -214 39q-79 39 -79 133q0 80 76 140q78 61 217 73v10
q-22 -2 -50 -2q-260 0 -413 148q-152 147 -152 417q0 165 68 293q67 127 190 196t289 69q164 0 287 -72q122 -71 187 -194q65 -122 65 -271v-84zM412 807q-73 -63 -80 -180h520q-7 114 -79 179q-70 64 -179 64q-110 0 -182 -63z" />
    <glyph glyph-name="Ecaron" unicode="&#x11a;" horiz-adv-x="1259" 
d="M1208 1434v-246h-778v-330h696v-240h-696v-372h774v-246h-1089v1434h1093zM272 1870h244l57 -62q59 -59 82 -92h13q25 35 82 94l57 60h242l-244 -295h-289z" />
    <glyph glyph-name="ecaron" unicode="&#x11b;" horiz-adv-x="1198" 
d="M1139 469h-807q1 -130 82 -207q79 -76 204 -76q96 0 167 51q67 48 89 130h254q-17 -131 -94 -220q-79 -91 -188 -135q-111 -45 -228 -45q-260 0 -413 148q-152 147 -152 417q0 165 68 293q67 127 190 196t289 69q164 0 287 -72q122 -71 187 -194q65 -122 65 -271v-84z
M412 807q-73 -63 -80 -180h520q-7 114 -79 179q-70 64 -179 64q-110 0 -182 -63zM211 1493h244l59 -61q51 -53 80 -93h12q25 36 84 95l55 59h242l-244 -295h-288z" />
    <glyph glyph-name="Gbreve" unicode="&#x11e;" horiz-adv-x="1591" 
d="M1202 332q-44 -160 -167 -263q-121 -102 -330 -102q-189 0 -337 90q-150 91 -232 260q-83 171 -83 400q0 225 87 394t252 262t392 93q294 0 472 -145q180 -147 210 -391h-321q-24 129 -117 210q-91 79 -240 79q-198 -1 -305 -137q-104 -132 -104 -365q0 -241 111 -371
q111 -131 329 -131q107 0 194 41q83 39 134 112q49 70 55 152v21h-483v221h778v-762h-266l-14 332h-15zM558 1656q-96 82 -118 224h215q7 -61 45 -94t97 -33t95 33t46 94h215q-24 -145 -119 -225t-237 -80q-145 0 -239 81z" />
    <glyph glyph-name="gbreve" unicode="&#x11f;" horiz-adv-x="1169" 
d="M1171 1014l-374 65l-2 -14q119 -29 195 -116q75 -85 75 -206q0 -164 -125 -259t-346 -95q-84 0 -164 17q-48 -15 -66 -35q-20 -22 -20 -54q0 -38 35 -62t96 -24h291q198 0 298 -75q101 -76 101 -250q0 -171 -140 -256q-142 -86 -415 -86q-292 0 -417 60t-125 183
q0 175 286 199v8q-122 12 -187 68t-65 131q0 96 74 144q74 49 203 53v8q-126 40 -192 123q-66 84 -66 202q0 141 98 229q99 88 336 132q272 51 616 127v-217zM743 847q-52 40 -149 40q-98 0 -150 -40q-53 -41 -53 -104q0 -67 53 -109t150 -42q96 0 149 42q54 43 54 109
q0 62 -54 104zM414 12q-97 -33 -97 -114q0 -62 70 -95q67 -32 223 -32q162 0 227 31q66 32 66 100q0 59 -39 86q-38 26 -125 26zM323 1279q-96 82 -118 224h215q7 -61 45 -94t96 -33q59 0 95 33t46 94h216q-24 -145 -119 -225t-238 -80t-238 81z" />
    <glyph glyph-name="Gdotaccent" unicode="&#x120;" horiz-adv-x="1591" 
d="M1202 332q-44 -160 -167 -263q-121 -102 -330 -102q-189 0 -337 90q-150 91 -232 260q-83 171 -83 400q0 225 87 394t252 262t392 93q294 0 472 -145q180 -147 210 -391h-321q-24 129 -117 210q-91 79 -240 79q-198 -1 -305 -137q-104 -132 -104 -365q0 -241 111 -371
q111 -131 329 -131q107 0 194 41q83 39 134 112q49 70 55 152v21h-483v221h778v-762h-266l-14 332h-15zM675 1624q-50 50 -50 119q0 71 51 120q52 50 121 50q72 0 121 -49t49 -121q0 -70 -49 -119t-121 -49q-73 0 -122 49z" />
    <glyph glyph-name="gdotaccent" unicode="&#x121;" horiz-adv-x="1212" 
d="M1171 1014l-374 65l-2 -14q119 -29 195 -116q75 -85 75 -206q0 -164 -125 -259t-346 -95q-84 0 -164 17q-48 -15 -66 -35q-20 -22 -20 -54q0 -38 35 -62t96 -24h291q198 0 298 -75q101 -76 101 -250q0 -171 -140 -256q-142 -86 -415 -86q-292 0 -417 60t-125 183
q0 175 286 199v8q-122 12 -187 68t-65 131q0 96 74 144q74 49 203 53v8q-126 40 -192 123q-66 84 -66 202q0 141 98 229q99 88 336 132q272 51 616 127v-217zM743 847q-52 40 -149 40q-98 0 -150 -40q-53 -41 -53 -104q0 -67 53 -109t150 -42q96 0 149 42q54 43 54 109
q0 62 -54 104zM414 12q-97 -33 -97 -114q0 -62 70 -95q67 -32 223 -32q162 0 227 31q66 32 66 100q0 59 -39 86q-38 26 -125 26zM462 1247q-50 50 -50 119q0 70 51 120q52 50 121 50q72 0 121 -49t49 -121q0 -70 -49 -119t-121 -49q-73 0 -122 49z" />
    <glyph glyph-name="uni0122" unicode="&#x122;" horiz-adv-x="1591" 
d="M1202 332q-44 -160 -167 -263q-121 -102 -330 -102q-189 0 -337 90q-150 91 -232 260q-83 171 -83 400q0 225 87 394t252 262t392 93q294 0 472 -145q180 -147 210 -391h-321q-24 129 -117 210q-91 79 -240 79q-198 -1 -305 -137q-104 -132 -104 -365q0 -241 111 -371
q111 -131 329 -131q107 0 194 41q83 39 134 112q49 70 55 152v21h-483v221h778v-762h-266l-14 332h-15zM762 -553h-195l97 379h264z" />
    <glyph glyph-name="uni0123" unicode="&#x123;" horiz-adv-x="1212" 
d="M1171 1014l-374 65l-2 -14q119 -29 195 -116q75 -85 75 -206q0 -164 -125 -259t-346 -95q-84 0 -164 17q-48 -15 -66 -35q-20 -22 -20 -54q0 -38 35 -62t96 -24h291q198 0 298 -75q101 -76 101 -250q0 -171 -140 -256q-142 -86 -415 -86q-292 0 -417 60t-125 183
q0 175 286 199v8q-122 12 -187 68t-65 131q0 96 74 144q74 49 203 53v8q-126 40 -192 123q-66 84 -66 202q0 141 98 229q99 88 336 132q272 51 616 127v-217zM743 847q-52 40 -149 40q-98 0 -150 -40q-53 -41 -53 -104q0 -67 53 -109t150 -42q96 0 149 42q54 43 54 109
q0 62 -54 104zM414 12q-97 -33 -97 -114q0 -62 70 -95q67 -32 223 -32q162 0 227 31q66 32 66 100q0 59 -39 86q-38 26 -125 26zM653 1196h-194l96 379h264z" />
    <glyph glyph-name="Hbar" unicode="&#x126;" horiz-adv-x="1533" 
d="M1391 1239h143v-127h-143v-1112h-314v596h-618v-596h-316v1112h-143v127h143v195h316v-195h618v195h314v-195zM459 842h618v270h-618v-270z" />
    <glyph glyph-name="hbar" unicode="&#x127;" horiz-adv-x="1339" 
d="M1048 1041q88 -48 141 -140q52 -91 52 -219v-682h-291v594q0 133 -62 199q-63 67 -179 67q-118 0 -188 -82t-70 -225v-553h-293v1182h-150v118h150v134h293v-134h311v-118h-311v-447h12q15 112 71 189q58 80 140 123q83 43 178 43q106 0 196 -49z" />
    <glyph glyph-name="Imacron" unicode="&#x12a;" horiz-adv-x="544" 
d="M115 0v1434h315v-1434h-315zM621 1575h-697v197h697v-197z" />
    <glyph glyph-name="imacron" unicode="&#x12b;" horiz-adv-x="491" 
d="M98 0v1057h291v-1057h-291zM590 1198h-696v197h696v-197z" />
    <glyph glyph-name="Iogonek" unicode="&#x12e;" horiz-adv-x="544" 
d="M115 0v1434h315v-1434h-315zM153 -377q-71 47 -71 146q0 83 76 143t207 78v10h65q-154 -91 -154 -178q0 -48 27 -66t80 -18q29 0 59 6v-162q-52 -6 -98 -6q-120 0 -191 47z" />
    <glyph glyph-name="iogonek" unicode="&#x12f;" horiz-adv-x="491" 
d="M98 0v1057h291v-1057h-291zM122 1247q-50 50 -50 119q0 70 51 120q52 50 121 50q72 0 121 -49t49 -121q0 -70 -49 -119t-121 -49q-73 0 -122 49zM112 -377q-71 47 -71 146q0 83 76 143q77 60 207 78v10h65q-153 -90 -153 -178q0 -49 26 -66q27 -18 80 -18q29 0 59 6v-162
q-53 -6 -98 -6q-120 0 -191 47z" />
    <glyph glyph-name="Idotaccent" unicode="&#x130;" horiz-adv-x="544" 
d="M115 0v1434h315v-1434h-315zM151 1624q-51 51 -51 119q0 70 52 120t120 50q72 0 121 -49t49 -121q0 -70 -49 -119t-121 -49t-121 49z" />
    <glyph glyph-name="dotlessi" unicode="&#x131;" horiz-adv-x="491" 
d="M98 0v1057h291v-1057h-291z" />
    <glyph glyph-name="uni0136" unicode="&#x136;" horiz-adv-x="1454" 
d="M864 829q146 0 228 -67q81 -67 137 -223l196 -539h-321l-162 434q-34 94 -79 130q-43 34 -138 34h-98l-197 -213v-385h-315v1434h315l-10 -668l14 -4q111 148 295 350l291 322h375l-324 -355q-89 -97 -225 -237l4 -13h14zM690 -553h-194l96 379h264z" />
    <glyph glyph-name="uni0137" unicode="&#x137;" horiz-adv-x="1177" 
d="M98 0v1434h285v-480q0 -182 -6 -366l10 -4q54 81 98 127q66 70 129 133l29 28l193 185h338l-213 -207q-123 -123 -246 -225v-11l33 -2q106 -1 172 -57q65 -55 106 -162l148 -393h-297l-91 248q-30 84 -74 125t-118 41h-78l-133 -129v-285h-285zM575 -553h-194l96 379h264
z" />
    <glyph glyph-name="Lacute" unicode="&#x139;" horiz-adv-x="1163" 
d="M430 1434v-1188h705v-246h-1020v1434h315zM793 1815l-639 -246l-66 164l625 268z" />
    <glyph glyph-name="lacute" unicode="&#x13a;" horiz-adv-x="489" 
d="M98 0v1434h291v-1434h-291zM725 1815l-639 -246l-66 164l625 268z" />
    <glyph glyph-name="uni013B" unicode="&#x13b;" horiz-adv-x="1163" 
d="M430 1434v-1188h705v-246h-1020v1434h315zM618 -553h-194l96 379h264z" />
    <glyph glyph-name="uni013C" unicode="&#x13c;" horiz-adv-x="489" 
d="M98 0v1434h291v-1434h-291zM203 -553h-195l96 379h265z" />
    <glyph glyph-name="Lcaron" unicode="&#x13d;" horiz-adv-x="1163" 
d="M430 1434v-1188h705v-246h-1020v1434h315zM721 868h-162l68 566h256z" />
    <glyph glyph-name="lcaron" unicode="&#x13e;" horiz-adv-x="798" 
d="M98 0v1434h291v-1434h-291zM653 868h-161l67 566h256z" />
    <glyph glyph-name="Lslash" unicode="&#x141;" horiz-adv-x="1196" 
d="M461 797v-551h706v-246h-1022v662l-145 -62v141l145 64v629h316v-494l327 141v-143z" />
    <glyph glyph-name="lslash" unicode="&#x142;" horiz-adv-x="610" 
d="M451 856l159 82v-133l-159 -82v-723h-291v578l-160 -82v133l160 82v723h291v-578z" />
    <glyph glyph-name="Nacute" unicode="&#x143;" horiz-adv-x="1513" 
d="M414 1024q6 -180 6 -502v-522h-305v1434h346l389 -615l31 -49q131 -209 202 -332l13 2q-6 159 -6 434v560h309v-1434h-338l-361 578q-40 65 -65 104q-145 239 -207 346zM1268 1815l-639 -246l-66 164l625 268z" />
    <glyph glyph-name="nacute" unicode="&#x144;" horiz-adv-x="1280" 
d="M986 1041q90 -49 142 -140q54 -94 54 -219v-682h-293v594q0 127 -64 197q-63 69 -176 69q-120 0 -189 -81t-69 -226v-553h-293v1057h283l10 -322h12q22 161 133 258t255 97q105 0 195 -49zM1126 1438l-639 -246l-65 164l625 268z" />
    <glyph glyph-name="uni0145" unicode="&#x145;" horiz-adv-x="1513" 
d="M414 1024q6 -180 6 -502v-522h-305v1434h346l389 -615l31 -49q131 -209 202 -332l13 2q-6 159 -6 434v560h309v-1434h-338l-361 578q-40 65 -65 104q-145 239 -207 346zM715 -553h-195l96 379h265z" />
    <glyph glyph-name="uni0146" unicode="&#x146;" horiz-adv-x="1280" 
d="M986 1041q90 -49 142 -140q54 -94 54 -219v-682h-293v594q0 127 -64 197q-63 69 -176 69q-120 0 -189 -81t-69 -226v-553h-293v1057h283l10 -322h12q22 161 133 258t255 97q105 0 195 -49zM625 -553h-195l96 379h265z" />
    <glyph glyph-name="Ncaron" unicode="&#x147;" horiz-adv-x="1513" 
d="M414 1024q6 -180 6 -502v-522h-305v1434h346l389 -615l31 -49q131 -209 202 -332l13 2q-6 159 -6 434v560h309v-1434h-338l-361 578q-40 65 -65 104q-145 239 -207 346zM397 1870h244l57 -62q59 -59 82 -92h13q27 39 81 94l58 60h242l-244 -295h-289z" />
    <glyph glyph-name="ncaron" unicode="&#x148;" horiz-adv-x="1280" 
d="M986 1041q90 -49 142 -140q54 -94 54 -219v-682h-293v594q0 127 -64 197q-63 69 -176 69q-120 0 -189 -81t-69 -226v-553h-293v1057h283l10 -322h12q22 161 133 258t255 97q105 0 195 -49zM256 1493h244l57 -61q57 -57 82 -93h12q27 39 82 95l58 59h241l-244 -295h-288z
" />
    <glyph glyph-name="Eng" unicode="&#x14a;" horiz-adv-x="1513" 
d="M115 0v1434h346l389 -615l31 -49q131 -209 202 -332l13 2q-6 159 -6 434v560h309v-1434q0 -204 -110 -305t-314 -101q-169 0 -232 5v237q53 -4 150 -4q85 0 126 35q40 34 42 127v6l-361 578q-40 65 -65 104q-145 239 -207 346l-14 -4q6 -180 6 -502v-522h-305z" />
    <glyph glyph-name="eng" unicode="&#x14b;" horiz-adv-x="1280" 
d="M98 0v1057h283l10 -322h12q22 161 133 258t255 97q105 0 195 -49t142 -140q54 -94 54 -219v-756q0 -161 -97 -247q-95 -85 -264 -85q-76 0 -190 3v223q66 -2 133 -2q66 1 95 28q30 27 30 84v664q0 128 -62 198q-61 68 -178 68q-119 0 -188 -82q-70 -84 -70 -225v-553
h-293z" />
    <glyph glyph-name="Omacron" unicode="&#x14c;" horiz-adv-x="1566" 
d="M398 59q-165 90 -255 260q-90 169 -90 400q0 229 90 398q89 168 254 259q163 90 385 90q221 0 386 -90t255 -259t90 -398q0 -231 -90 -400q-90 -170 -255 -260t-386 -90q-219 0 -384 90zM1079 345q109 129 109 374q0 241 -109 371q-108 129 -297 129q-188 0 -296 -129
q-107 -128 -107 -371q0 -248 107 -374q108 -128 296 -128q189 0 297 128zM1192 1575h-807v197h807v-197z" />
    <glyph glyph-name="omacron" unicode="&#x14d;" horiz-adv-x="1259" 
d="M339 36q-134 70 -209 197q-77 130 -77 299q0 165 77 293q76 126 209 196q132 69 292 69q161 0 291 -69q131 -69 207 -196q77 -128 77 -293q0 -171 -76 -299q-76 -129 -207 -197q-132 -69 -292 -69t-292 69zM837 276q74 87 74 256q0 166 -74 250q-75 86 -206 86
q-133 0 -208 -86t-75 -250q0 -168 75 -256t208 -88q131 0 206 88zM977 1198h-696v197h696v-197z" />
    <glyph glyph-name="Ohungarumlaut" unicode="&#x150;" horiz-adv-x="1566" 
d="M398 59q-165 90 -255 260q-90 169 -90 400q0 229 90 398q89 168 254 259q163 90 385 90q221 0 386 -90t255 -259t90 -398q0 -231 -90 -400q-90 -170 -255 -260t-386 -90q-219 0 -384 90zM1079 345q109 129 109 374q0 241 -109 371q-108 129 -297 129q-188 0 -296 -129
q-107 -128 -107 -371q0 -248 107 -374q108 -128 296 -128q189 0 297 128zM893 1868l-258 -299l-146 96l203 340zM1284 1868l-258 -299l-145 96l202 340z" />
    <glyph glyph-name="ohungarumlaut" unicode="&#x151;" horiz-adv-x="1259" 
d="M339 36q-134 70 -209 197q-77 130 -77 299q0 165 77 293q76 126 209 196q132 69 292 69q161 0 291 -69q131 -69 207 -196q77 -128 77 -293q0 -171 -76 -299q-76 -129 -207 -197q-132 -69 -292 -69t-292 69zM837 276q74 87 74 256q0 166 -74 250q-75 86 -206 86
q-133 0 -208 -86t-75 -250q0 -168 75 -256t208 -88q131 0 206 88zM737 1491l-258 -299l-145 96l203 340zM1128 1491l-258 -299l-145 96l203 340z" />
    <glyph glyph-name="OE" unicode="&#x152;" horiz-adv-x="2357" 
d="M393 59q-163 91 -251 259q-89 170 -89 401q0 229 88 398q88 168 248 259q159 90 369 90q96 0 187 -24q88 -23 163 -70q53 -33 92 -86l12 4v144h1092v-246h-778v-330h698v-240h-698v-372h776v-246h-1090v145l-12 5q-47 -57 -61 -66q-73 -58 -169 -86q-99 -29 -204 -29
q-211 0 -373 90zM1079 345q109 129 109 374q0 241 -109 371q-108 129 -297 129q-188 0 -296 -129q-107 -128 -107 -371q0 -248 107 -374q108 -128 296 -128q189 0 297 128z" />
    <glyph glyph-name="oe" unicode="&#x153;" horiz-adv-x="2058" 
d="M337 36q-131 69 -207 197q-77 130 -77 299q0 165 77 293q76 127 207 196t288 69q121 0 235 -51q110 -49 182 -148h11q62 99 170 149t241 50q164 0 285 -72q120 -71 185 -194q65 -122 65 -271v-84h-807q1 -134 76 -209q74 -74 196 -74q113 0 183 52t88 129h254
q-16 -129 -94 -220q-77 -90 -187 -135q-111 -45 -227 -45q-296 0 -426 199h-13q-73 -100 -182 -150q-107 -49 -235 -49q-157 0 -288 69zM1712 627q-7 113 -78 179q-68 64 -180 64q-110 0 -182 -63q-73 -63 -80 -180h520zM825 276q74 89 74 256q0 161 -74 249q-74 87 -200 87
q-129 0 -203 -87q-74 -88 -74 -249q0 -167 74 -256q73 -88 203 -88q127 0 200 88z" />
    <glyph glyph-name="Racute" unicode="&#x154;" horiz-adv-x="1380" 
d="M1341 0h-315l-51 328q-12 76 -36 117q-24 40 -73 55q-46 14 -141 14h-295v-514h-315v1434h729q218 0 341 -96q122 -95 122 -263q0 -152 -103 -252q-100 -97 -268 -108v-15q161 -1 235 -65q74 -63 101 -215zM754 737q109 0 178 64q67 63 67 168q0 98 -67 158
q-69 61 -178 61h-324v-451h324zM1153 1815l-639 -246l-65 164l624 268z" />
    <glyph glyph-name="racute" unicode="&#x155;" horiz-adv-x="890" 
d="M401 651q23 158 72 252q47 90 136 131q90 41 245 41v-246q-173 -11 -268 -46q-99 -37 -144 -116q-47 -82 -53 -231v-436h-291v1057h283l8 -406h12zM930 1438l-639 -246l-66 164l625 268z" />
    <glyph glyph-name="uni0156" unicode="&#x156;" horiz-adv-x="1380" 
d="M1341 0h-315l-51 328q-12 76 -36 117q-24 40 -73 55q-46 14 -141 14h-295v-514h-315v1434h729q218 0 341 -96q122 -95 122 -263q0 -152 -103 -252q-100 -97 -268 -108v-15q161 -1 235 -65q74 -63 101 -215zM754 737q109 0 178 64q67 63 67 168q0 98 -67 158
q-69 61 -178 61h-324v-451h324zM702 -553h-194l96 379h264z" />
    <glyph glyph-name="uni0157" unicode="&#x157;" horiz-adv-x="890" 
d="M401 651q23 158 72 252q47 90 136 131q90 41 245 41v-246q-173 -11 -268 -46q-99 -37 -144 -116q-47 -82 -53 -231v-436h-291v1057h283l8 -406h12zM209 -553h-195l97 379h264z" />
    <glyph glyph-name="Rcaron" unicode="&#x158;" horiz-adv-x="1380" 
d="M1341 0h-315l-51 328q-12 76 -36 117q-24 40 -73 55q-46 14 -141 14h-295v-514h-315v1434h729q218 0 341 -96q122 -95 122 -263q0 -152 -103 -252q-100 -97 -268 -108v-15q161 -1 235 -65q74 -63 101 -215zM754 737q109 0 178 64q67 63 67 168q0 98 -67 158
q-69 61 -178 61h-324v-451h324zM285 1870h243l58 -62q59 -59 82 -92h12q25 35 82 94l57 60h242l-244 -295h-289z" />
    <glyph glyph-name="rcaron" unicode="&#x159;" horiz-adv-x="890" 
d="M401 651q23 158 72 252q47 90 136 131q90 41 245 41v-246q-173 -11 -268 -46q-99 -37 -144 -116q-47 -82 -53 -231v-436h-291v1057h283l8 -406h12zM61 1493h244l57 -61q57 -57 82 -93h13q27 39 82 95l57 59h242l-244 -295h-289z" />
    <glyph glyph-name="Sacute" unicode="&#x15a;" horiz-adv-x="1353" 
d="M210 100q-172 131 -167 365h307q7 -115 97 -179q89 -63 243 -65q145 0 226 48t81 134q0 59 -42 100q-41 39 -121 56l-349 76q-201 45 -305 149t-104 260q0 196 162 308q161 112 444 112q292 0 455 -132t168 -369h-301q-4 119 -90 183q-85 64 -232 64q-136 0 -212 -44
q-75 -44 -75 -126q0 -62 51 -105q52 -45 152 -67l381 -88q159 -35 247 -129q89 -95 89 -252q0 -201 -165 -315q-166 -115 -460 -115q-308 0 -480 131zM1159 1815l-639 -246l-65 164l624 268z" />
    <glyph glyph-name="sacute" unicode="&#x15b;" horiz-adv-x="1087" 
d="M172 66q-137 99 -141 280h286q5 -86 69 -131t183 -45q95 0 148 32t53 89q0 40 -32 67q-31 26 -111 43l-242 52q-162 30 -246 109q-86 80 -86 200q0 147 129 237q130 91 348 91q243 0 377 -101q133 -100 133 -282h-274q0 87 -58 133q-59 47 -163 47q-95 0 -151 -31
q-54 -30 -54 -86q0 -41 35 -70q34 -28 100 -43l262 -57q163 -35 242 -108q80 -74 80 -191q0 -160 -129 -247t-367 -87q-255 0 -391 99zM1010 1438l-639 -246l-66 164l625 268z" />
    <glyph glyph-name="Scedilla" unicode="&#x15e;" horiz-adv-x="1353" 
d="M670 -90v-10h22q91 0 150 -43t59 -111q0 -96 -80 -144q-79 -48 -225 -48q-65 0 -145 4v114q54 -2 122 -2q53 0 86 21t33 57q0 38 -33 55q-34 17 -84 17q-24 0 -53 -4v82q68 24 80 73q-270 21 -416 149q-145 127 -143 345h307q7 -115 97 -179q89 -63 243 -65q145 0 226 48
t81 134q0 59 -42 100q-41 39 -121 56l-349 76q-201 45 -305 149t-104 260q0 196 162 308q161 112 444 112q292 0 455 -132t168 -369h-301q-4 119 -90 183q-85 64 -232 64q-136 0 -212 -44q-75 -44 -75 -126q0 -62 51 -105q52 -45 152 -67l381 -88q159 -35 247 -129
q89 -95 89 -252q0 -191 -151 -306q-151 -114 -421 -122q-16 -45 -73 -61z" />
    <glyph glyph-name="scedilla" unicode="&#x15f;" horiz-adv-x="1087" 
d="M549 -90v-10h22q91 0 150 -43t59 -111q0 -96 -80 -144t-225 -48q-65 0 -145 4v114q54 -2 123 -2q53 0 86 21q32 20 32 57q0 39 -32 55q-34 17 -84 17q-25 0 -54 -4v82q64 23 80 71q-215 15 -330 112q-116 98 -120 265h286q5 -86 69 -131t183 -45q95 0 148 32t53 89
q0 40 -32 67q-31 26 -111 43l-242 52q-162 30 -246 109q-86 80 -86 200q0 147 129 237q130 91 348 91q243 0 377 -101q133 -100 133 -282h-274q0 87 -58 133q-59 47 -163 47q-95 0 -151 -31q-54 -30 -54 -86q0 -41 35 -70q34 -28 100 -43l262 -57q163 -35 242 -108
q80 -74 80 -191q0 -149 -114 -235q-115 -87 -322 -97q-20 -44 -74 -59z" />
    <glyph glyph-name="Scaron" unicode="&#x160;" horiz-adv-x="1353" 
d="M210 100q-172 131 -167 365h307q7 -115 97 -179q89 -63 243 -65q145 0 226 48t81 134q0 59 -42 100q-41 39 -121 56l-349 76q-201 45 -305 149t-104 260q0 196 162 308q161 112 444 112q292 0 455 -132t168 -369h-301q-4 119 -90 183q-85 64 -232 64q-136 0 -212 -44
q-75 -44 -75 -126q0 -62 51 -105q52 -45 152 -67l381 -88q159 -35 247 -129q89 -95 89 -252q0 -201 -165 -315q-166 -115 -460 -115q-308 0 -480 131zM289 1870h243l58 -62q59 -59 82 -92h12q25 35 82 94l57 60h242l-244 -295h-289z" />
    <glyph glyph-name="scaron" unicode="&#x161;" horiz-adv-x="1087" 
d="M172 66q-137 99 -141 280h286q5 -86 69 -131t183 -45q95 0 148 32t53 89q0 40 -32 67q-31 26 -111 43l-242 52q-162 30 -246 109q-86 80 -86 200q0 147 129 237q130 91 348 91q243 0 377 -101q133 -100 133 -282h-274q0 87 -58 133q-59 47 -163 47q-95 0 -151 -31
q-54 -30 -54 -86q0 -41 35 -70q34 -28 100 -43l262 -57q163 -35 242 -108q80 -74 80 -191q0 -160 -129 -247t-367 -87q-255 0 -391 99zM139 1493h244l57 -61q57 -57 82 -93h13q30 43 81 95l58 59h241l-243 -295h-289z" />
    <glyph glyph-name="uni0162" unicode="&#x162;" horiz-adv-x="1282" 
d="M1253 1434v-246h-452v-1188h-314v1188h-458v246h1224zM657 -100q93 0 151 -43t58 -111q0 -96 -79 -144q-80 -48 -224 -48q-65 0 -145 4v114q54 -2 121 -2q55 0 88 21q32 20 32 57q0 72 -118 72q-25 0 -54 -4v82q86 30 86 102h144q0 -30 -23 -55t-59 -35v-10h22z" />
    <glyph glyph-name="uni0163" unicode="&#x163;" horiz-adv-x="825" 
d="M780 877h-299v-533q0 -77 31 -103t123 -26q67 0 143 6v-223q-113 -10 -192 -10q-4 -26 -26 -48q-23 -23 -54 -30v-10h22q91 0 150 -43t59 -111q0 -96 -80 -144q-79 -48 -225 -48q-65 0 -145 4v114q54 -2 123 -2q53 0 86 21q32 20 32 57q0 39 -32 55q-34 17 -84 17
q-25 0 -54 -4v82q80 30 84 96q-132 17 -191 85q-61 70 -61 216v582h-165v180h165v276h277l8 -276h305v-180z" />
    <glyph glyph-name="Tcaron" unicode="&#x164;" horiz-adv-x="1282" 
d="M1253 1434v-246h-452v-1188h-314v1188h-458v246h1224zM254 1870h244l57 -62q59 -59 82 -92h12q25 35 82 94l57 60h242l-244 -295h-288z" />
    <glyph glyph-name="tcaron" unicode="&#x165;" horiz-adv-x="825" 
d="M780 877h-299v-533q0 -77 31 -103t123 -26q67 0 143 6v-223q-161 -12 -223 -10q-193 0 -279 66t-86 241v582h-165v180h165v276h277l8 -276h305v-180zM733 1135h-174l68 421h256z" />
    <glyph glyph-name="Tbar" unicode="&#x166;" horiz-adv-x="1282" 
d="M1253 1434v-246h-452v-397h258v-127h-258v-664h-314v664h-264v127h264v397h-458v246h1224z" />
    <glyph glyph-name="tbar" unicode="&#x167;" horiz-adv-x="825" 
d="M780 877h-299v-256h299v-119h-299v-158q0 -77 31 -103t123 -26q67 0 143 6v-223q-161 -12 -223 -10q-193 0 -279 66t-86 241v207h-165v119h165v256h-165v180h165v276h277l8 -276h305v-180z" />
    <glyph glyph-name="Umacron" unicode="&#x16a;" horiz-adv-x="1449" 
d="M94 1434h314v-881q0 -334 317 -334t317 336v879h314v-897q0 -282 -171 -426t-460 -144q-283 0 -457 147t-174 431v889zM1133 1577h-807v197h807v-197z" />
    <glyph glyph-name="umacron" unicode="&#x16b;" horiz-adv-x="1280" 
d="M889 1057h293v-1057h-285l-8 322h-12q-15 -112 -71 -189q-58 -80 -140 -123q-83 -43 -179 -43q-107 0 -195 48q-87 47 -141 141q-53 92 -53 219v682h291v-594q0 -132 63 -199t179 -67q117 0 187 82q71 83 71 225v553zM989 1198h-696v197h696v-197z" />
    <glyph glyph-name="Uring" unicode="&#x16e;" horiz-adv-x="1449" 
d="M94 1434h314v-881q0 -334 317 -334t317 336v879h314v-897q0 -282 -171 -426t-460 -144q-283 0 -457 147t-174 431v889zM508 1341q-84 73 -84 195t84 195q83 73 221 73t221 -73q84 -73 84 -195t-84 -195q-83 -73 -221 -73t-221 73zM820 1463q34 27 34 73t-34 73
q-35 27 -91 27q-55 0 -88 -27t-33 -73t33 -73t88 -27q57 0 91 27z" />
    <glyph glyph-name="uring" unicode="&#x16f;" horiz-adv-x="1280" 
d="M889 1057h293v-1057h-285l-8 322h-12q-15 -112 -71 -189q-58 -80 -140 -123q-83 -43 -179 -43q-107 0 -195 48q-87 47 -141 141q-53 92 -53 219v682h291v-594q0 -132 63 -199t179 -67q117 0 187 82q71 83 71 225v553zM420 1272q-84 74 -84 194q0 122 84 195q85 74 221 74
t221 -74q84 -73 84 -195q0 -120 -84 -194q-85 -74 -221 -74t-221 74zM732 1394q34 27 34 72q0 46 -34 73q-36 28 -91 28q-53 0 -89 -28q-34 -27 -34 -73q0 -45 34 -72q36 -28 89 -28q55 0 91 28z" />
    <glyph glyph-name="Uhungarumlaut" unicode="&#x170;" horiz-adv-x="1449" 
d="M94 1434h314v-881q0 -334 317 -334t317 336v879h314v-897q0 -282 -171 -426t-460 -144q-283 0 -457 147t-174 431v889zM836 1870l-258 -299l-146 96l203 340zM1227 1870l-258 -299l-146 96l203 340z" />
    <glyph glyph-name="uhungarumlaut" unicode="&#x171;" horiz-adv-x="1280" 
d="M889 1057h293v-1057h-285l-8 322h-12q-15 -112 -71 -189q-58 -80 -140 -123q-83 -43 -179 -43q-107 0 -195 48q-87 47 -141 141q-53 92 -53 219v682h291v-594q0 -132 63 -199t179 -67q117 0 187 82q71 83 71 225v553zM748 1491l-259 -299l-145 96l203 340zM1139 1491
l-258 -299l-146 96l203 340z" />
    <glyph glyph-name="Uogonek" unicode="&#x172;" horiz-adv-x="1449" 
d="M1042 1434h314v-897q0 -228 -113 -365q-114 -138 -313 -184q-92 -44 -137 -89q-43 -43 -43 -83q0 -74 116 -74q37 0 84 4v-162q-50 -10 -129 -10q-135 0 -214 39t-79 133q0 80 76 140q78 61 217 73v12q-55 -4 -96 -4q-283 0 -457 147t-174 431v889h314v-881
q0 -334 317 -334t317 336v879z" />
    <glyph glyph-name="uogonek" unicode="&#x173;" horiz-adv-x="1280" 
d="M1182 0q-201 -91 -201 -182q0 -76 115 -76q35 0 86 4v-162q-23 -2 -57 -6q-33 -4 -66 -4q-140 0 -220 41q-79 40 -79 137q0 88 86 154q84 65 241 86v8h-190l-8 322h-12q-15 -112 -71 -189q-58 -80 -140 -123q-83 -43 -179 -43q-107 0 -195 48q-87 47 -141 141
q-53 92 -53 219v682h291v-594q0 -132 63 -199t179 -67q117 0 187 82q71 83 71 225v553h293v-1057z" />
    <glyph glyph-name="Wcircumflex" unicode="&#x174;" horiz-adv-x="2031" 
d="M408 0l-402 1434h330l41 -160l100 -414q4 -16 21 -87.5t31 -128.5q44 -181 65 -277h14q41 192 121 540q73 302 88 377l35 150h326l36 -150q24 -98 89 -377q69 -297 120 -540h15q32 147 81 349q18 73 68 285l66 273l41 160h331l-401 -1434h-360l-242 1034h-14l-240 -1034
h-360zM627 1575l243 295h289l244 -295h-242l-57 59q-55 56 -82 95h-12q-25 -36 -82 -93l-58 -61h-243z" />
    <glyph glyph-name="wcircumflex" unicode="&#x175;" horiz-adv-x="1748" 
d="M367 0l-363 1057h311l80 -242l33 -106q13 -49 45 -152q42 -136 64 -219h10q49 197 127 477l67 242h267l69 -242q78 -280 127 -477h10q22 83 64 219q32 103 45 152l33 106l80 242h311l-363 -1057h-301l-202 709h-11l-202 -709h-301zM485 1198l244 295h289l244 -295h-242
l-57 59q-55 56 -82 95h-13q-23 -33 -82 -92l-57 -62h-244z" />
    <glyph glyph-name="Ycircumflex" unicode="&#x176;" horiz-adv-x="1392" 
d="M1386 1434l-530 -863v-571h-315v571l-535 863h354l111 -183l23 -39q146 -251 204 -362h15q108 208 225 405l104 179h344zM315 1575l244 295h289l244 -295h-242l-57 59q-55 56 -82 95h-13q-25 -36 -82 -93l-57 -61h-244z" />
    <glyph glyph-name="ycircumflex" unicode="&#x177;" horiz-adv-x="1126" 
d="M571 256q53 184 158 520l19 55l69 226h305l-401 -1084q-56 -146 -127 -226q-73 -82 -169 -113t-243 -31q-47 0 -131 4v227q35 -4 103 -4q94 0 138 29q46 30 79 104l16 41l-383 1053h315l72 -232l37 -123q71 -227 133 -446h10zM176 1198l244 295h289l243 -295h-241l-58 59
q-55 56 -82 95h-12q-23 -33 -82 -92l-57 -62h-244z" />
    <glyph glyph-name="Ydieresis" unicode="&#x178;" horiz-adv-x="1392" 
d="M1386 1434l-530 -863v-571h-315v571l-535 863h354l111 -183l23 -39q146 -251 204 -362h15q108 208 225 405l104 179h344zM807 1619q-43 43 -43 103q0 63 43 106q44 44 104 44q64 0 107 -43t43 -107q0 -61 -43 -104t-107 -43q-60 0 -104 44zM394 1618q-44 44 -44 104
t44 104t106 44t106 -42q43 -42 43 -106q0 -63 -43 -105q-44 -42 -106 -42q-63 0 -106 43z" />
    <glyph glyph-name="Zacute" unicode="&#x179;" horiz-adv-x="1290" 
d="M53 0l-2 252l797 915l-4 15q-183 -15 -527 -15h-229v267h1143v-252l-801 -916l8 -14q224 14 422 14h379v-266h-1186zM1165 1815l-639 -246l-65 164l624 268z" />
    <glyph glyph-name="zacute" unicode="&#x17a;" horiz-adv-x="1097" 
d="M59 0v162l590 676l-4 10q-119 -12 -348 -12h-205v221h924v-183l-555 -653l4 -12q159 12 326 12h243v-221h-975zM1030 1438l-639 -246l-65 164l624 268z" />
    <glyph glyph-name="Zdotaccent" unicode="&#x17b;" horiz-adv-x="1290" 
d="M53 0l-2 252l797 915l-4 15q-183 -15 -527 -15h-229v267h1143v-252l-801 -916l8 -14q224 14 422 14h379v-266h-1186zM564 1624q-50 50 -50 119q0 71 51 120q52 50 121 50q72 0 121 -49t49 -121q0 -70 -49 -119t-121 -49q-73 0 -122 49z" />
    <glyph glyph-name="zdotaccent" unicode="&#x17c;" horiz-adv-x="1097" 
d="M59 0v162l590 676l-4 10q-119 -12 -348 -12h-205v221h924v-183l-555 -653l4 -12q159 12 326 12h243v-221h-975zM429 1247q-50 50 -50 119q0 70 51 120q52 50 121 50q72 0 121 -49t49 -121q0 -70 -49 -119t-121 -49q-73 0 -122 49z" />
    <glyph glyph-name="Zcaron" unicode="&#x17d;" horiz-adv-x="1290" 
d="M53 0l-2 252l797 915l-4 15q-183 -15 -527 -15h-229v267h1143v-252l-801 -916l8 -14q224 14 422 14h379v-266h-1186zM297 1870h244l57 -62q59 -59 82 -92h12q25 35 82 94l57 60h242l-244 -295h-288z" />
    <glyph glyph-name="zcaron" unicode="&#x17e;" horiz-adv-x="1097" 
d="M59 0v162l590 676l-4 10q-119 -12 -348 -12h-205v221h924v-183l-555 -653l4 -12q159 12 326 12h243v-221h-975zM160 1493h243l58 -61q57 -57 82 -93h12q27 39 82 95l57 59h242l-244 -295h-289z" />
    <glyph glyph-name="florin" unicode="&#x192;" horiz-adv-x="1175" 
d="M866 1199q-40 -37 -51 -122l-33 -246h275v-180h-291l-104 -694q-28 -193 -121 -283q-91 -88 -279 -88q-88 0 -217 15v229q87 -10 143 -10q78 0 112 36q33 34 48 124l101 671h-232v180h258l39 269q28 193 122 282q92 88 279 88q80 0 215 -12v-229q-106 8 -143 8
q-80 0 -121 -38z" />
    <glyph glyph-name="uni01E2" unicode="&#x1e2;" horiz-adv-x="2156" 
d="M1249 618l144 -372h753v-246h-991l-121 338h-585l-119 -338h-324l541 1434h1235v-246h-754l127 -330h770v-240h-676zM532 580h416l-86 241q-73 213 -117 359h-14q-42 -148 -115 -361zM1448 1575h-696v197h696v-197z" />
    <glyph glyph-name="uni01E3" unicode="&#x1e3;" horiz-adv-x="1980" 
d="M143 42q-100 75 -100 218q0 142 107 225q105 82 321 80q196 -1 274 33t78 115q0 63 -53 110t-166 47q-123 0 -185 -62q-64 -64 -71 -171h-289q6 125 67 229q61 103 180 163q122 61 296 61q144 0 242 -40q97 -40 157 -128h11q68 90 159 129t218 39q163 0 284 -72
q122 -72 185 -194t63 -271v-84h-807q1 -134 76 -209q74 -74 199 -74q110 0 181 51q69 49 87 130h256q-17 -131 -94 -220q-78 -90 -189 -135t-227 -45q-132 0 -240 38q-106 37 -178 114q-42 41 -74 94q-33 55 -51 117h-10q-30 -173 -155 -268t-294 -95q-157 0 -258 75z
M1636 627q-8 115 -78 179t-182 64q-109 0 -181 -63q-74 -64 -81 -180h522zM662 199q74 41 117 108q44 68 44 144v161h-10q-11 -68 -42 -108q-33 -42 -100 -64q-69 -22 -192 -30q-66 -5 -103 -37q-38 -33 -38 -88q0 -60 43 -94q42 -33 121 -33q86 0 160 41zM1360 1198h-696
v197h696v-197z" />
    <glyph glyph-name="AEacute" unicode="&#x1fc;" horiz-adv-x="2156" 
d="M1249 618l144 -372h753v-246h-991l-121 338h-585l-119 -338h-324l541 1434h1235v-246h-754l127 -330h770v-240h-676zM532 580h416l-86 241q-73 213 -117 359h-14q-42 -148 -115 -361zM1579 1815l-639 -246l-66 164l625 268z" />
    <glyph glyph-name="aeacute" unicode="&#x1fd;" horiz-adv-x="1980" 
d="M143 42q-100 75 -100 218q0 142 107 225q105 82 321 80q196 -1 274 33t78 115q0 63 -53 110t-166 47q-123 0 -185 -62q-64 -64 -71 -171h-289q6 125 67 229q61 103 180 163q122 61 296 61q144 0 242 -40q97 -40 157 -128h11q68 90 159 129t218 39q163 0 284 -72
q122 -72 185 -194t63 -271v-84h-807q1 -134 76 -209q74 -74 199 -74q110 0 181 51q69 49 87 130h256q-17 -131 -94 -220q-78 -90 -189 -135t-227 -45q-132 0 -240 38q-106 37 -178 114q-42 41 -74 94q-33 55 -51 117h-10q-30 -173 -155 -268t-294 -95q-157 0 -258 75z
M1636 627q-8 115 -78 179t-182 64q-109 0 -181 -63q-74 -64 -81 -180h522zM662 199q74 41 117 108q44 68 44 144v161h-10q-11 -68 -42 -108q-33 -42 -100 -64q-69 -22 -192 -30q-66 -5 -103 -37q-38 -33 -38 -88q0 -60 43 -94q42 -33 121 -33q86 0 160 41zM1493 1438
l-639 -246l-66 164l625 268z" />
    <glyph glyph-name="uni0218" unicode="&#x218;" horiz-adv-x="1353" 
d="M210 100q-172 131 -167 365h307q7 -115 97 -179q89 -63 243 -65q145 0 226 48t81 134q0 59 -42 100q-41 39 -121 56l-349 76q-201 45 -305 149t-104 260q0 196 162 308q161 112 444 112q292 0 455 -132t168 -369h-301q-4 119 -90 183q-85 64 -232 64q-136 0 -212 -44
q-75 -44 -75 -126q0 -62 51 -105q52 -45 152 -67l381 -88q159 -35 247 -129q89 -95 89 -252q0 -201 -165 -315q-166 -115 -460 -115q-308 0 -480 131zM643 -553h-194l96 379h264z" />
    <glyph glyph-name="uni0219" unicode="&#x219;" horiz-adv-x="1087" 
d="M172 66q-137 99 -141 280h286q5 -86 69 -131t183 -45q95 0 148 32t53 89q0 40 -32 67q-31 26 -111 43l-242 52q-162 30 -246 109q-86 80 -86 200q0 147 129 237q130 91 348 91q243 0 377 -101q133 -100 133 -282h-274q0 87 -58 133q-59 47 -163 47q-95 0 -151 -31
q-54 -30 -54 -86q0 -41 35 -70q34 -28 100 -43l262 -57q163 -35 242 -108q80 -74 80 -191q0 -160 -129 -247t-367 -87q-255 0 -391 99zM522 -553h-194l96 379h264z" />
    <glyph glyph-name="uni021A" unicode="&#x21a;" horiz-adv-x="1282" 
d="M1253 1434v-246h-452v-1188h-314v1188h-458v246h1224zM608 -553h-194l96 379h264z" />
    <glyph glyph-name="uni021B" unicode="&#x21b;" horiz-adv-x="825" 
d="M780 877h-299v-533q0 -77 31 -103t123 -26q67 0 143 6v-223q-161 -12 -223 -10q-193 0 -279 66t-86 241v582h-165v180h165v276h277l8 -276h305v-180zM479 -553h-194l96 379h264z" />
    <glyph glyph-name="circumflex" unicode="&#x2c6;" horiz-adv-x="778" 
d="M2 1198l244 295h289l243 -295h-243l-56 59q-55 56 -82 95h-12q-23 -33 -82 -92l-57 -62h-244z" />
    <glyph glyph-name="caron" unicode="&#x2c7;" horiz-adv-x="778" 
d="M2 1493h244l59 -61q51 -53 80 -93h12q25 36 84 95l56 59h241l-243 -295h-289z" />
    <glyph glyph-name="breve" unicode="&#x2d8;" horiz-adv-x="819" 
d="M171 1279q-96 82 -118 224h215q7 -61 45 -94t97 -33t95 33t46 94h215q-24 -145 -119 -225t-237 -80q-144 0 -239 81z" />
    <glyph glyph-name="dotaccent" unicode="&#x2d9;" horiz-adv-x="825" 
d="M294 1247q-50 50 -50 119q0 70 50 120t120 50q72 0 121 -49t49 -121q0 -70 -49 -119t-121 -49q-71 0 -120 49z" />
    <glyph glyph-name="ring" unicode="&#x2da;" horiz-adv-x="819" 
d="M188 1272q-84 74 -84 194q0 122 84 195q85 74 222 74q136 0 221 -74q84 -73 84 -195q0 -120 -84 -194q-85 -74 -221 -74q-137 0 -222 74zM501 1394q34 27 34 72q0 46 -34 73q-36 28 -91 28q-53 0 -89 -28q-34 -27 -34 -73q0 -45 34 -72q36 -28 89 -28q55 0 91 28z" />
    <glyph glyph-name="ogonek" unicode="&#x2db;" horiz-adv-x="421" 
d="M81 -379q-81 47 -81 148q0 85 74 141q73 55 254 82v8h94q-201 -91 -201 -182q0 -76 115 -76q35 0 86 4v-162q-20 -2 -56 -6q-33 -4 -67 -4q-136 0 -218 47z" />
    <glyph glyph-name="tilde" unicode="&#x2dc;" horiz-adv-x="819" 
d="M31 1198q0 136 54 206q54 71 155 71q80 0 182 -45q78 -35 119 -35q30 0 45 18q14 17 16 62h186q0 -134 -53 -204q-53 -69 -155 -69q-83 0 -185 41q-85 35 -119 35q-57 0 -59 -80h-186z" />
    <glyph glyph-name="hungarumlaut" unicode="&#x2dd;" horiz-adv-x="856" 
d="M403 1491l-258 -299l-145 96l203 340zM795 1491l-258 -299l-146 96l203 340z" />
    <glyph glyph-name="uni02F3" unicode="&#x2f3;" horiz-adv-x="819" 
d="M188 -530q-84 74 -84 194q0 122 84 195q83 73 222 73q138 0 221 -73q84 -73 84 -195q0 -120 -84 -194q-85 -74 -221 -74q-137 0 -222 74zM501 -409q34 27 34 73t-34 73q-35 27 -91 27q-54 0 -89 -27q-34 -27 -34 -73t34 -73q35 -27 89 -27q56 0 91 27z" />
    <glyph glyph-name="gravecomb" unicode="&#x300;" horiz-adv-x="0" 
d="M0 1733l-66 -164l-639 246l78 186z" />
    <glyph glyph-name="acutecomb" unicode="&#x301;" horiz-adv-x="0" 
d="M0 1815l-639 -246l-66 164l625 268z" />
    <glyph glyph-name="uni0302" unicode="&#x302;" horiz-adv-x="0" 
d="M-776 1575l244 295h288l244 -295h-242l-57 59q-55 56 -82 95h-12q-25 -36 -82 -93l-57 -61h-244z" />
    <glyph glyph-name="tildecomb" unicode="&#x303;" horiz-adv-x="0" 
d="M-758 1575q0 135 53 206q52 70 154 70q82 0 184 -45q75 -34 119 -34q30 0 45 18q16 19 17 61h186q0 -133 -53 -203q-52 -69 -156 -69q-82 0 -184 41q-85 35 -119 35q-57 0 -59 -80h-187z" />
    <glyph glyph-name="uni0304" unicode="&#x304;" horiz-adv-x="0" 
d="M0 1575h-696v197h696v-197z" />
    <glyph glyph-name="uni0306" unicode="&#x306;" horiz-adv-x="0" 
d="M-595 1656q-96 82 -118 224h215q7 -61 45 -94t97 -33t95 33t46 94h215q-24 -145 -119 -225t-237 -80q-144 0 -239 81z" />
    <glyph glyph-name="uni0307" unicode="&#x307;" horiz-adv-x="0" 
d="M-267 1624q-50 50 -50 119q0 71 51 120q52 50 121 50q71 0 120 -49q50 -50 50 -121q0 -69 -50 -119q-49 -49 -120 -49q-73 0 -122 49z" />
    <glyph glyph-name="uni0308" unicode="&#x308;" horiz-adv-x="0" 
d="M-252 1619q-43 43 -43 103q0 63 43 106q44 44 105 44q63 0 106 -43t43 -107q0 -61 -43 -104t-106 -43q-61 0 -105 44zM-665 1618q-44 44 -44 104t44 104t106 44q63 0 106 -42t43 -106q0 -63 -43 -105t-106 -42t-106 43z" />
    <glyph glyph-name="uni030A" unicode="&#x30a;" horiz-adv-x="0" 
d="M-526 1339q-84 73 -84 195t84 195q83 73 221 73t221 -73q84 -73 84 -195t-84 -195q-83 -73 -221 -73t-221 73zM-214 1461q34 27 34 73t-34 73q-35 27 -91 27q-55 0 -88 -27t-33 -73t33 -73t88 -27q57 0 91 27z" />
    <glyph glyph-name="uni030B" unicode="&#x30b;" horiz-adv-x="0" 
d="M-391 1868l-258 -299l-146 96l203 340zM0 1868l-258 -299l-145 96l202 340z" />
    <glyph glyph-name="uni030C" unicode="&#x30c;" horiz-adv-x="0" 
d="M-776 1870h244l57 -62q59 -59 82 -92h12q25 35 82 94l57 60h242l-244 -295h-288z" />
    <glyph glyph-name="uni0312" unicode="&#x312;" horiz-adv-x="0" 
d="M-195 1573h-194l96 379h264z" />
    <glyph glyph-name="uni0326" unicode="&#x326;" horiz-adv-x="0" 
d="M-170 -553h-195l97 379h264z" />
    <glyph glyph-name="uni0327" unicode="&#x327;" horiz-adv-x="0" 
d="M-209 -100q93 0 151 -43t58 -111q0 -96 -79 -144q-80 -48 -224 -48q-66 0 -146 4v114q54 -2 121 -2q55 0 88 21t33 57q0 72 -119 72q-24 0 -53 -4v82q86 30 86 102h143q0 -32 -22 -55q-23 -25 -59 -35v-10h22z" />
    <glyph glyph-name="uni0328" unicode="&#x328;" horiz-adv-x="0" 
d="M-343 -385q-79 40 -79 137q0 88 86 154q84 65 242 86v8h94q-201 -91 -201 -182q0 -76 115 -76q35 0 86 4v-162q-20 -2 -56 -6q-33 -4 -67 -4q-140 0 -220 41z" />
    <glyph glyph-name="uni0394" unicode="&#x394;" horiz-adv-x="1402" 
d="M1352 0h-1301v264l447 1170h397l457 -1170v-264zM362 250h285h137h246l8 12q-70 140 -131 311l-96 269q-51 137 -111 344h-14q-45 -166 -111 -355l-96 -274q-56 -155 -123 -293z" />
    <glyph glyph-name="uni03A9" unicode="&#x3a9;" horiz-adv-x="1605" 
d="M53 0v250h375l4 14q-184 76 -274 229t-90 328q0 202 92 350t258 226t381 78q219 0 386 -78t259 -227t92 -349q0 -174 -89 -328q-88 -153 -271 -229l4 -14h372v-250h-659v219q157 77 240 224q84 149 84 331q0 216 -107 334q-107 117 -305 117q-202 0 -310 -118
q-108 -119 -108 -333q0 -182 87 -332q87 -149 243 -223v-219h-664z" />
    <glyph glyph-name="uni03BC" unicode="&#x3bc;" horiz-adv-x="1376" 
d="M98 -377v1434h293v-590q0 -126 67 -199q65 -71 193 -71q140 0 201 64t61 208v588h293v-772q0 -40 16 -58q15 -16 50 -16q40 0 84 2v-215q-94 -8 -160 -8q-129 0 -204 54t-77 185l-2 54h-10q-22 -153 -89 -233q-66 -79 -208 -79q-59 0 -112 16q-50 15 -93 54l-12 -4
l-16 -414h-275z" />
    <glyph glyph-name="pi" unicode="&#x3c0;" horiz-adv-x="1290" 
d="M1245 840h-160v-553q0 -40 17 -59q16 -17 51 -17q46 0 92 2v-213q-106 -8 -170 -8q-155 0 -217 59q-63 60 -63 211v578h-320v-840h-291v840h-159v217h1220v-217z" />
    <glyph glyph-name="Wgrave" unicode="&#x1e80;" horiz-adv-x="2031" 
d="M408 0l-402 1434h330l41 -160l100 -414q4 -16 21 -87.5t31 -128.5q44 -181 65 -277h14q41 192 121 540q73 302 88 377l35 150h326l36 -150q24 -98 89 -377q69 -297 120 -540h15q32 147 81 349q18 73 68 285l66 273l41 160h331l-401 -1434h-360l-242 1034h-14l-240 -1034
h-360zM1241 1733l-65 -164l-639 246l77 186z" />
    <glyph glyph-name="wgrave" unicode="&#x1e81;" horiz-adv-x="1748" 
d="M367 0l-363 1057h311l80 -242l33 -106q13 -49 45 -152q42 -136 64 -219h10q49 197 127 477l67 242h267l69 -242q78 -280 127 -477h10q22 83 64 219q32 103 45 152l33 106l80 242h311l-363 -1057h-301l-202 709h-11l-202 -709h-301zM1100 1356l-66 -164l-639 246l78 186z
" />
    <glyph glyph-name="Wacute" unicode="&#x1e82;" horiz-adv-x="2031" 
d="M408 0l-402 1434h330l41 -160l100 -414q4 -16 21 -87.5t31 -128.5q44 -181 65 -277h14q41 192 121 540q73 302 88 377l35 150h326l36 -150q24 -98 89 -377q69 -297 120 -540h15q32 147 81 349q18 73 68 285l66 273l41 160h331l-401 -1434h-360l-242 1034h-14l-240 -1034
h-360zM1495 1815l-639 -246l-65 164l624 268z" />
    <glyph glyph-name="wacute" unicode="&#x1e83;" horiz-adv-x="1748" 
d="M367 0l-363 1057h311l80 -242l33 -106q13 -49 45 -152q42 -136 64 -219h10q49 197 127 477l67 242h267l69 -242q78 -280 127 -477h10q22 83 64 219q32 103 45 152l33 106l80 242h311l-363 -1057h-301l-202 709h-11l-202 -709h-301zM1356 1438l-639 -246l-66 164l625 268z
" />
    <glyph glyph-name="Wdieresis" unicode="&#x1e84;" horiz-adv-x="2031" 
d="M408 0l-402 1434h330l41 -160l100 -414q4 -16 21 -87.5t31 -128.5q44 -181 65 -277h14q41 192 121 540q73 302 88 377l35 150h326l36 -150q24 -98 89 -377q69 -297 120 -540h15q32 147 81 349q18 73 68 285l66 273l41 160h331l-401 -1434h-360l-242 1034h-14l-240 -1034
h-360zM1116 1619q-43 43 -43 103q0 63 43 106q44 44 105 44q63 0 106 -43t43 -107q0 -61 -43 -104t-106 -43q-61 0 -105 44zM703 1618q-44 44 -44 104t44 104t106 44q63 0 106 -42t43 -106q0 -63 -43 -105t-106 -42t-106 43z" />
    <glyph glyph-name="wdieresis" unicode="&#x1e85;" horiz-adv-x="1748" 
d="M367 0l-363 1057h311l80 -242l33 -106q13 -49 45 -152q42 -136 64 -219h10q49 197 127 477l67 242h267l69 -242q78 -280 127 -477h10q22 83 64 219q32 103 45 152l33 106l80 242h311l-363 -1057h-301l-202 709h-11l-202 -709h-301zM977 1242q-43 43 -43 104q0 62 43 105
q44 44 104 44q64 0 107 -43t43 -106q0 -62 -43 -105t-107 -43q-60 0 -104 44zM564 1241q-44 44 -44 105q0 59 44 103t106 44t106 -42q43 -42 43 -105q0 -64 -43 -106q-44 -42 -106 -42q-63 0 -106 43z" />
    <glyph glyph-name="uni1E9E" unicode="&#x1e9e;" horiz-adv-x="1368" 
d="M905 780q210 -11 316 -108q108 -99 108 -264q0 -198 -143 -313t-400 -115q-132 0 -219 10v246q77 -11 174 -11q121 0 194 56t73 143q0 93 -68 140q-67 46 -178 46h-191v221h179q110 0 168 52q57 51 57 135q0 82 -51 126q-52 44 -142 44h-352v-1188h-315v1434h759
q198 0 310 -84t112 -232q0 -158 -102 -237q-103 -80 -289 -86v-15z" />
    <glyph glyph-name="Ygrave" unicode="&#x1ef2;" horiz-adv-x="1392" 
d="M1386 1434l-530 -863v-571h-315v571l-535 863h354l111 -183l23 -39q146 -251 204 -362h15q108 208 225 405l104 179h344zM930 1733l-66 -164l-639 246l78 186z" />
    <glyph glyph-name="ygrave" unicode="&#x1ef3;" horiz-adv-x="1126" 
d="M571 256q53 184 158 520l19 55l69 226h305l-401 -1084q-56 -146 -127 -226q-73 -82 -169 -113t-243 -31q-47 0 -131 4v227q35 -4 103 -4q94 0 138 29q46 30 79 104l16 41l-383 1053h315l72 -232l37 -123q71 -227 133 -446h10zM791 1356l-66 -164l-639 246l78 186z" />
    <glyph glyph-name="endash" unicode="&#x2013;" horiz-adv-x="1093" 
d="M1030 453h-967v243h967v-243z" />
    <glyph glyph-name="emdash" unicode="&#x2014;" horiz-adv-x="1976" 
d="M1913 453h-1850v243h1850v-243z" />
    <glyph glyph-name="quoteleft" unicode="&#x2018;" horiz-adv-x="577" 
d="M504 1434l-129 -668h-301l219 668h211z" />
    <glyph glyph-name="quoteright" unicode="&#x2019;" horiz-adv-x="577" 
d="M74 766l129 668h301l-219 -668h-211z" />
    <glyph glyph-name="quotesinglbase" unicode="&#x201a;" horiz-adv-x="577" 
d="M74 -342l129 668h301l-219 -668h-211z" />
    <glyph glyph-name="quotedblleft" unicode="&#x201c;" horiz-adv-x="999" 
d="M504 1434l-129 -668h-301l219 668h211zM926 1434l-129 -668h-301l219 668h211z" />
    <glyph glyph-name="quotedblright" unicode="&#x201d;" horiz-adv-x="999" 
d="M74 766l129 668h301l-219 -668h-211zM496 766l129 668h301l-219 -668h-211z" />
    <glyph glyph-name="quotedblbase" unicode="&#x201e;" horiz-adv-x="999" 
d="M74 -342l129 668h301l-219 -668h-211zM496 -342l129 668h301l-219 -668h-211z" />
    <glyph glyph-name="dagger" unicode="&#x2020;" horiz-adv-x="1228" 
d="M774 1020h426v-246h-426v-1098h-317v1098h-428v246h428v414h317v-414z" />
    <glyph glyph-name="daggerdbl" unicode="&#x2021;" horiz-adv-x="1228" 
d="M1200 1020v-246h-426v-440h426v-246h-426v-412h-317v412h-428v246h428v440h-428v246h428v414h317v-414h426z" />
    <glyph glyph-name="bullet" unicode="&#x2022;" horiz-adv-x="831" 
d="M263 322q-68 38 -108 107q-40 68 -40 155q0 83 40 148q43 69 108 105q68 37 153 37q131 0 216 -82t85 -208q0 -131 -85 -216t-216 -85q-84 0 -153 39z" />
    <glyph glyph-name="ellipsis" unicode="&#x2026;" horiz-adv-x="1576" 
d="M127 22q-53 53 -53 134q0 78 53 129t133 51q82 0 134 -51t52 -129q0 -82 -52 -134q-53 -53 -134 -53q-80 0 -133 53zM657 22q-53 53 -53 134q0 78 53 129t134 51t134 -51q52 -51 52 -129q0 -82 -52 -134q-53 -53 -134 -53t-134 53zM1184 22q-54 54 -54 134q0 77 54 129
q52 51 133 51t134 -51q52 -51 52 -129q0 -82 -52 -134q-53 -53 -134 -53q-80 0 -133 53z" />
    <glyph glyph-name="perthousand" unicode="&#x2030;" horiz-adv-x="2666" 
d="M132 711q-91 112 -91 317q0 210 90 321t270 111q181 0 272 -111q91 -110 91 -321q0 -205 -91 -317q-92 -113 -272 -113q-177 0 -269 113zM645 0h-196l765 1434h197zM512 841q33 66 33 187q0 126 -34 191t-110 65q-77 0 -110 -66t-33 -190q0 -123 34 -188q35 -66 109 -66
q77 0 111 67zM1995 92q-92 113 -92 318q0 210 91 320q92 112 271 112t270 -112t91 -320q0 -204 -91 -318q-90 -112 -270 -112q-179 0 -270 112zM1191 86q-91 112 -91 317q0 207 90 320t270 113q181 0 271 -113q90 -112 90 -320q0 -205 -90 -317q-90 -113 -271 -113
q-177 0 -269 113zM2374 222q32 64 32 188q0 126 -32 190q-33 66 -109 66q-78 0 -111 -66q-32 -64 -32 -190q0 -127 32 -190q33 -64 111 -64q76 0 109 66zM1570 215q32 67 32 188q0 125 -33 191q-33 65 -109 65q-78 0 -110 -65q-33 -66 -33 -191t33 -189t110 -64q79 0 110 65
z" />
    <glyph glyph-name="guilsinglleft" unicode="&#x2039;" horiz-adv-x="577" 
d="M256 532q49 -29 89 -57q38 -27 87 -67l31 -25v-277l-348 285v293l348 285v-279l-33 -24q-90 -74 -174 -123v-11z" />
    <glyph glyph-name="guilsinglright" unicode="&#x203a;" horiz-adv-x="577" 
d="M322 543q-87 51 -175 123l-32 24v279l348 -285v-293l-348 -285v277l30 25q49 40 87 67q34 24 90 57v11z" />
    <glyph glyph-name="uni203D" unicode="&#x203d;" horiz-adv-x="1110" 
d="M645 840q22 43 64 92q45 56 45 125q0 81 -52 125q-50 43 -145 43q-117 0 -170 -58q-54 -58 -55 -190h-293q0 493 526 493q222 0 362 -100t140 -285q0 -104 -53 -190q-52 -85 -160 -164q-81 -58 -114 -91q-34 -34 -47 -74q-14 -41 -15 -113h-279q0 119 9 227l55 424h153
l17 -262zM404 20q-54 52 -54 134q0 76 54 128q53 52 135 52q81 0 133 -51q53 -51 53 -129q0 -82 -53 -135q-52 -52 -133 -52q-80 0 -135 53z" />
    <glyph glyph-name="fraction" unicode="&#x2044;" horiz-adv-x="626" 
d="M25 0h-189l766 1434h189z" />
    <glyph glyph-name="uni2070" unicode="&#x2070;" horiz-adv-x="821" 
d="M134 1180q-93 117 -93 323q0 209 93 326t278 117q182 0 275 -117t93 -326q0 -206 -93 -323t-275 -117q-185 0 -278 117zM530 1292q37 71 37 211q0 141 -37 212q-38 73 -118 73q-86 0 -122 -72t-36 -213t36 -212q36 -70 122 -70q81 0 118 71z" />
    <glyph glyph-name="uni2074" unicode="&#x2074;" horiz-adv-x="802" 
d="M662 1087h-209v183h-410v194l393 471h223v-508h113v-157h-110v-183zM205 1427h256v328h-8q-29 -69 -150 -213z" />
    <glyph glyph-name="uni2075" unicode="&#x2075;" horiz-adv-x="741" 
d="M634 1568q79 -80 79 -206q0 -95 -45 -164t-121 -106q-75 -37 -166 -37q-146 0 -243 67t-105 197h194q15 -115 152 -115q66 0 103 40q38 41 38 112q0 68 -40 109q-40 42 -103 42q-56 0 -89 -20t-55 -68l-184 41l80 467h524v-158h-364l-43 -219l8 -2q22 47 65 73
q47 28 113 28q122 0 202 -81z" />
    <glyph glyph-name="uni2076" unicode="&#x2076;" horiz-adv-x="761" 
d="M238 1513q12 61 64 98q53 38 147 38q119 0 202 -78q82 -78 82 -207q0 -143 -97 -221q-98 -78 -239 -78q-175 0 -266 111q-92 112 -92 313q0 217 92 339t268 122q119 0 212 -58q92 -57 110 -178h-189q-12 44 -44 65q-31 21 -89 21q-91 0 -131 -70q-41 -71 -41 -217h11z
M503 1258q38 41 38 98q0 64 -39 104q-39 41 -105 41q-64 0 -105 -41q-40 -40 -40 -104q0 -57 39 -96q40 -40 106 -41q70 0 106 39z" />
    <glyph glyph-name="uni2077" unicode="&#x2077;" horiz-adv-x="677" 
d="M520 1778h-489v157h616v-170q-96 -96 -154 -189q-55 -89 -83 -207t-29 -279h-215q1 228 98 407q96 178 256 275v6z" />
    <glyph glyph-name="uni2078" unicode="&#x2078;" horiz-adv-x="774" 
d="M128 1129q-93 65 -93 186q0 82 45 139t131 74v10q-64 11 -101 59q-38 50 -38 125q0 105 85 166q86 62 234 62q146 0 229 -62q82 -61 82 -166q0 -77 -39 -125q-40 -48 -102 -59v-10q85 -17 131 -75q47 -59 47 -138q0 -121 -93 -186q-92 -64 -255 -64q-171 0 -263 64z
M485 1617q35 30 35 81q0 54 -36 82q-35 28 -97 28q-61 0 -98 -27t-37 -79q0 -54 36 -84q37 -31 103 -31q60 0 94 30zM499 1249q41 30 42 90q0 55 -41 87t-109 32q-73 0 -116 -31q-42 -30 -42 -86q0 -59 42 -91q41 -31 116 -31q67 0 108 30z" />
    <glyph glyph-name="uni2079" unicode="&#x2079;" horiz-adv-x="757" 
d="M524 1497q-15 -60 -65 -97q-52 -38 -146 -38q-123 0 -203 79q-81 79 -81 214q0 138 97 214q98 77 239 77q174 0 264 -111t90 -313q0 -216 -90 -338q-90 -121 -269 -121q-118 0 -210 57q-93 58 -109 176h188q12 -42 43 -64t88 -22q92 0 133 70q40 69 42 217h-11zM259 1752
q-38 -41 -38 -97q0 -63 38 -104q37 -40 103 -40q68 0 108 40t40 104q0 57 -39 96q-40 40 -106 41q-69 0 -106 -40z" />
    <glyph glyph-name="uni2080" unicode="&#x2080;" horiz-adv-x="821" 
d="M134 -309q-93 117 -93 323q0 209 93 326t278 117q182 0 275 -117t93 -326q0 -206 -93 -323t-275 -117q-185 0 -278 117zM530 -197q37 71 37 211q0 141 -37 212q-38 73 -118 73q-86 0 -122 -72t-36 -213q0 -142 36 -212t122 -70q81 0 118 71z" />
    <glyph glyph-name="uni2081" unicode="&#x2081;" horiz-adv-x="499" 
d="M231 203q-29 -49 -69 -72q-40 -22 -117 -22h-14v182q111 0 175 37t79 108h164v-846h-209v613h-9z" />
    <glyph glyph-name="uni2082" unicode="&#x2082;" horiz-adv-x="729" 
d="M27 -242l123 86q125 87 202 146q66 51 102 99q35 47 35 101q0 55 -32 81q-34 28 -84 28q-61 0 -98 -33t-39 -96h-197q1 138 94 214q92 75 246 75q140 0 228 -71q87 -71 87 -200q0 -83 -47 -148t-121 -118q-90 -64 -241 -160l2 -10q66 8 198 8h203v-170h-661v168z" />
    <glyph glyph-name="uni2083" unicode="&#x2083;" horiz-adv-x="757" 
d="M522 47q93 -6 151 -60t58 -145q0 -126 -92 -197t-252 -71q-157 0 -258 75t-102 228h196q0 -147 164 -147q61 0 97 30t36 86t-34 86q-36 31 -101 31h-72v141h76q123 0 123 101q0 44 -34 71t-91 27q-63 0 -99 -30q-37 -30 -38 -101h-199q1 156 99 222q97 65 245 65
q140 0 227 -63t87 -169q0 -71 -51 -119q-50 -47 -136 -53v-8z" />
    <glyph glyph-name="uni2084" unicode="&#x2084;" horiz-adv-x="802" 
d="M662 -410h-209v183h-410v194l393 471h223v-508h113v-157h-110v-183zM205 -70h256v328h-8q-29 -69 -150 -213z" />
    <glyph glyph-name="uni2085" unicode="&#x2085;" horiz-adv-x="741" 
d="M634 87q79 -80 79 -206q0 -95 -45 -164t-121 -106q-75 -37 -166 -37q-145 0 -243 68t-105 196h194q15 -114 152 -114q67 0 103 39q38 41 38 112q0 69 -40 110q-40 42 -103 42q-55 0 -89 -21t-55 -67l-184 41l80 466h524v-157h-364l-43 -219l8 -2q21 46 65 72
q47 28 113 28q122 0 202 -81z" />
    <glyph glyph-name="uni2086" unicode="&#x2086;" horiz-adv-x="761" 
d="M238 23q12 60 64 97q53 38 147 38q119 0 202 -78q82 -78 82 -207q0 -143 -97 -221q-98 -78 -239 -78q-175 0 -266 111q-92 112 -92 313q0 217 92 339t268 122q119 0 212 -58q92 -57 110 -178h-189q-12 44 -44 65t-89 21q-91 0 -131 -70q-41 -71 -41 -216h11zM503 -232
q38 41 38 97q0 63 -39 104t-105 41q-64 0 -105 -41q-40 -40 -40 -104q0 -57 39 -96q40 -40 106 -41q69 0 106 40z" />
    <glyph glyph-name="uni2087" unicode="&#x2087;" horiz-adv-x="677" 
d="M520 279h-489v157h616v-170q-96 -96 -154 -189q-55 -89 -83 -207t-29 -280h-215q1 229 98 408q95 177 256 274v7z" />
    <glyph glyph-name="uni2088" unicode="&#x2088;" horiz-adv-x="774" 
d="M128 -361q-93 65 -93 185q0 82 45 139t131 74v10q-64 11 -101 59q-38 50 -38 125q0 105 85 166q86 62 234 62q146 0 229 -62q82 -61 82 -166q0 -77 -39 -125q-40 -48 -102 -59v-10q85 -17 131 -75q47 -59 47 -138q0 -120 -93 -185q-94 -65 -255 -65q-169 0 -263 65z
M485 126q35 30 35 81q0 53 -36 82q-35 28 -97 28q-61 0 -98 -27t-37 -79q0 -54 36 -84q37 -31 103 -31q60 0 94 30zM499 -242q41 30 42 90q0 55 -41 87t-109 32q-74 0 -116 -30t-42 -87q0 -60 42 -91q41 -31 116 -31q67 0 108 30z" />
    <glyph glyph-name="uni2089" unicode="&#x2089;" horiz-adv-x="757" 
d="M524 14q-15 -60 -65 -97q-52 -38 -146 -38q-123 0 -203 79q-81 80 -81 214q0 138 97 214q98 77 239 77q174 0 264 -111t90 -313q0 -217 -90 -338t-269 -121q-117 0 -210 58t-109 176h188q12 -43 43 -65q30 -21 88 -21q92 0 133 69q40 69 42 217h-11zM259 269
q-38 -41 -38 -97q0 -62 38 -103q37 -40 103 -40q68 0 108 40t40 103q0 57 -39 96q-40 40 -106 41q-69 0 -106 -40z" />
    <glyph glyph-name="uni208D" unicode="&#x208d;" horiz-adv-x="366" 
d="M172 -555q-68 158 -95 282q-28 131 -28 289q0 170 27 297t96 283h195q-58 -147 -89 -292q-30 -141 -30 -288q0 -268 119 -571h-195z" />
    <glyph glyph-name="uni208E" unicode="&#x208e;" horiz-adv-x="366" 
d="M0 -555q119 303 119 571q0 147 -30 288q-31 145 -89 292h195q69 -156 96 -283q26 -123 26 -297q0 -163 -27 -289q-27 -124 -95 -282h-195z" />
    <glyph glyph-name="franc" unicode="&#x20a3;" horiz-adv-x="1097" 
d="M1069 1434v-246h-612v-330h549v-240h-549v-245h266v-127h-266v-246h-316v246h-141v127h141v1061h928z" />
    <glyph glyph-name="lira" unicode="&#x20a4;" horiz-adv-x="1222" 
d="M467 246h700v-246h-1130v246h115v256h-115v127h115v106h-115v127h115v162q0 220 136 332t374 112q239 0 368 -120q130 -121 135 -353h-297q-2 120 -54 172q-54 54 -150 54q-98 0 -148 -52q-49 -50 -49 -165v-142h514v-127h-514v-106h514v-127h-514v-256z" />
    <glyph glyph-name="uni20A6" unicode="&#x20a6;" horiz-adv-x="1570" 
d="M1571 797v-127h-144v-670h-337l-361 578q-50 82 -57 92h-223v-148v-522h-306v670h-143v127h143v637h346l390 -615l14 -22h225v77v560h309v-637h144zM594 797q-86 140 -137 231l-15 -4q4 -141 4 -227h148zM1124 440q-4 95 -4 154l-2 76h-145q53 -84 139 -232z" />
    <glyph glyph-name="peseta" unicode="&#x20a7;" horiz-adv-x="1456" 
d="M1456 1014v-127h-143q-27 -184 -172 -289q-144 -104 -363 -104h-319v-494h-316v887h-143v127h143v420h648q221 0 366 -109q143 -108 160 -311h139zM459 1188v-174h536q-18 86 -91 130t-181 44h-264zM723 715q109 0 180 43t92 129h-536v-172h264z" />
    <glyph glyph-name="uni20A8" unicode="&#x20a8;" horiz-adv-x="2467" 
d="M1341 0h-315l-51 328q-12 76 -36 117q-24 40 -73 55q-46 14 -141 14h-295v-514h-315v1434h729q218 0 341 -96q122 -95 122 -263q0 -152 -103 -252q-100 -97 -268 -108v-15q161 -1 235 -65q74 -63 101 -215zM754 737q109 0 178 64q67 63 67 168q0 98 -67 158
q-69 61 -178 61h-324v-451h324zM1552 66q-137 99 -141 280h287q5 -87 68 -131q64 -45 184 -45q94 0 147 32t53 89q0 40 -31 67q-30 26 -112 43l-242 52q-160 30 -245 109q-86 80 -86 200q0 147 129 237q130 91 348 91q243 0 377 -101q133 -100 133 -282h-275q0 87 -58 133
q-59 47 -163 47q-94 0 -150 -31q-55 -31 -55 -86q0 -41 35 -70q34 -28 100 -43l263 -57q161 -34 241 -108t80 -191q0 -160 -129 -247t-366 -87q-256 0 -392 99z" />
    <glyph glyph-name="uni20A9" unicode="&#x20a9;" horiz-adv-x="2011" 
d="M2015 1434l-186 -666h178v-127h-213l-180 -641h-361l-149 641h-197l-149 -641h-361l-180 641h-211v127h176l-186 666h332l41 -160q44 -194 59 -254q27 -108 45 -186l16 -66h197l25 106q40 156 96 410l37 150h323l37 -150q56 -254 96 -410l25 -106h195l122 506l41 160h332
zM997 1034l-61 -266h139l-61 266h-17zM598 367l49 231l10 43h-137q22 -91 51 -225l13 -49h14zM1427 367l13 49q28 134 51 225h-137l10 -43l49 -231h14z" />
    <glyph glyph-name="Euro" unicode="&#x20ac;" horiz-adv-x="1484" 
d="M1149 508h307q-37 -256 -203 -396q-167 -141 -417 -141q-273 0 -446 155t-218 413h-172v127h160q-2 22 -2 51q0 46 2 82h-160v127h178q51 245 219 391q167 145 424 145q261 0 424 -132q165 -133 211 -386h-315q-51 270 -312 270q-268 0 -331 -288h383v-127h-402
q-2 -32 -2 -78q0 -31 2 -55h402v-127h-389q28 -157 111 -240q82 -82 220 -82q283 0 326 291z" />
    <glyph glyph-name="uni20AD" unicode="&#x20ad;" horiz-adv-x="1490" 
d="M1112 0l-438 643h-6l-209 -203v-440h-316v643h-143v127h143v664h316l-10 -664h22q76 117 309 360l303 304h390l-580 -572l63 -92h488v-127h-402l443 -643h-373z" />
    <glyph glyph-name="uni20AE" unicode="&#x20ae;" horiz-adv-x="1282" 
d="M1253 1434v-246h-452v-273l254 111v-141l-254 -111v-168l254 111v-142l-254 -110v-465h-314v330l-258 -113v141l258 113v168l-258 -111v142l258 110v408h-458v246h1224z" />
    <glyph glyph-name="uni20B1" unicode="&#x20b1;" horiz-adv-x="1452" 
d="M1452 1094v-103h-135v-28q0 -30 -2 -52h137v-102h-158q-49 -150 -187 -232q-139 -83 -331 -83h-319v-494h-316v809h-141v102h141v80h-141v103h141v340h647q200 0 337 -87q138 -88 178 -253h149zM457 1188v-94h501q-37 46 -98 70q-62 24 -139 24h-264zM999 991h-542v-80
h542q2 16 2 39q0 25 -2 41zM721 715q80 0 139 23t98 71h-501v-94h264z" />
    <glyph glyph-name="uni20B2" unicode="&#x20b2;" horiz-adv-x="1591" 
d="M961 762h536v-762h-266l-14 332h-15q-38 -134 -126 -227q-87 -92 -236 -125v-230h-129v217h-6q-189 0 -337 90q-150 91 -232 260q-83 171 -83 400q0 212 78 376q77 162 225 260q144 96 355 111v219h129v-219q270 -15 433 -157q165 -144 193 -377h-321q-22 117 -99 194
q-75 75 -200 90v-999q153 8 250 95q95 87 106 210v21h-241v221zM464 379q86 -128 253 -156v989q-166 -24 -252 -155t-86 -340q0 -211 85 -338z" />
    <glyph glyph-name="uni20B3" unicode="&#x20b3;" horiz-adv-x="1495" 
d="M1489 0h-334l-108 307h-609l-108 -307h-324l117 307h-98v127h145l49 133h-194v127h243l279 740h385l287 -740h256v-127h-207l53 -133h154v-127h-105zM573 694h334l-45 127q-73 213 -117 359h-14q-42 -148 -115 -361zM528 567l-47 -133h518l-47 133h-424z" />
    <glyph glyph-name="uni20B4" unicode="&#x20b4;" horiz-adv-x="1468" 
d="M1468 895v-127h-1468v127h899q64 24 93 58q30 35 30 85q0 86 -81 130q-82 44 -202 44q-147 0 -231 -54t-92 -167h-303q15 227 181 350t443 123q181 0 316 -49q137 -49 213 -141q75 -90 75 -217q0 -97 -59 -162h186zM0 549v127h1468v-127h-884q-78 -24 -117 -61
q-37 -36 -37 -93q0 -87 81 -130q82 -44 202 -44q146 0 232 54q85 54 93 167h303q-15 -228 -180 -350q-166 -123 -438 -123q-181 0 -319 48q-137 48 -215 141q-76 91 -76 219q0 101 67 172h-180z" />
    <glyph glyph-name="uni20B5" unicode="&#x20b5;" horiz-adv-x="1497" 
d="M827 219q126 18 205 109q77 89 94 229h320q-18 -256 -182 -414q-163 -157 -437 -174v-219h-129v219q-199 15 -344 109t-223 258t-78 383t78 382t223 256q144 92 344 107v219h129v-219q276 -17 439 -174q164 -158 182 -416h-322q-17 141 -94 230t-205 110v-995zM464 377
q87 -132 234 -156v993q-149 -24 -234 -154t-85 -341q0 -212 85 -342z" />
    <glyph glyph-name="uni20B8" unicode="&#x20b8;" horiz-adv-x="1286" 
d="M1257 1188h-1228v246h1228v-246zM803 0h-318v745h-456v246h1228v-246h-454v-745z" />
    <glyph glyph-name="uni20B9" unicode="&#x20b9;" horiz-adv-x="1298" 
d="M1245 1307h-268l-4 -15q55 -43 79 -92q23 -47 23 -125q0 -23 -2 -43h172v-127h-209q-43 -84 -130 -130q-86 -46 -201 -52v-14q161 -4 235 -65q74 -60 96 -204l74 -440h-317l-52 348q-12 76 -35 110q-23 35 -73 50q-46 14 -144 14h-374v223h403q100 0 162 43q64 44 82 117
h-647v127h645q-16 75 -78 116q-61 40 -164 40h-403v246h1130v-127z" />
    <glyph glyph-name="uni20BA" unicode="&#x20ba;" horiz-adv-x="1302" 
d="M1253 762q0 -236 -96 -407t-272 -263t-412 -92h-313v608l-160 -69v141l160 70v170l-160 -70v141l160 70v373h313v-238l352 152v-142l-352 -151v-170l352 153v-141l-352 -154v-491q219 0 338 134t119 376h323z" />
    <glyph glyph-name="uni20BC" unicode="&#x20bc;" horiz-adv-x="1583" 
d="M938 1087q286 -7 419 -140q132 -132 132 -394v-553h-307v561q0 135 -63 206q-64 72 -181 73v-740h-295v740q-118 0 -180 -73t-62 -206v-561h-307v553q0 262 135 394q136 133 414 140v347h295v-347z" />
    <glyph glyph-name="uni20BF" unicode="&#x20bf;" horiz-adv-x="1368" 
d="M1210 121q-119 -107 -340 -119v-246h-131v244h-182v-244h-131v244h-311v1434h311v270h131v-270h182v270h131v-270h7q197 0 309 -86q110 -85 110 -238q0 -143 -100 -227q-101 -84 -278 -90v-15q201 -8 306 -108t105 -254q0 -188 -119 -295zM924 1144q-52 44 -148 44h-346
v-357h315q109 0 170 50q60 50 60 139q0 80 -51 124zM795 246q99 0 155 49q58 50 58 135q0 82 -63 131q-62 49 -167 49h-348v-364h365z" />
    <glyph glyph-name="uni2116" unicode="&#x2116;" horiz-adv-x="2437" 
d="M1669 733q-113 115 -113 305q0 193 113 308q113 114 299 114q190 0 301 -117t111 -305q0 -126 -51 -220t-145 -147t-216 -53q-186 0 -299 115zM414 1024q6 -180 6 -502v-522h-305v1434h346l389 -615l31 -49q131 -209 202 -332l13 2q-6 159 -6 434v560h309v-1434h-338
l-361 578q-40 65 -65 104q-145 239 -207 346zM2093 885q41 56 41 153q0 101 -43 157t-123 56t-123 -56t-43 -157t43 -154q44 -55 123 -55q84 0 125 56zM2380 381h-824v156h824v-156z" />
    <glyph glyph-name="trademark" unicode="&#x2122;" horiz-adv-x="1191" 
d="M334 907h-127v426h-162v101h451v-101h-162v-426zM559 907v527h176l70 -205q38 -117 47 -150h4l33 111l14 45l68 199h176v-527h-123v201q0 92 2 174h-4q0 -1 -29 -92l-18 -60l-72 -223h-98l-68 207l-53 168h-4q2 -88 2 -182v-193h-123z" />
    <glyph glyph-name="estimated" unicode="&#x212e;" horiz-adv-x="1857" 
d="M930 1473q379 0 600 -226q114 -112 168 -243q55 -132 55 -299h-1317q-28 0 -28 -27v-359q0 -68 32 -94q200 -196 490 -196q150 0 289 65q137 63 225 168h147q-89 -124 -260 -207q-171 -82 -401 -82q-369 0 -598 213q-230 209 -230 539q0 163 57 294q57 130 171 238
q222 216 600 216zM440 1217q-32 -29 -32 -91v-348q0 -26 28 -26h981q29 0 29 26v348q0 61 -33 91q-215 198 -483 198q-278 0 -490 -198z" />
    <glyph glyph-name="uni2150" unicode="&#x2150;" horiz-adv-x="1622" 
d="M231 1200q-29 -50 -69 -72t-117 -22h-14v182q111 0 175 37t79 109h164v-846h-209v612h-9zM426 0h-188l766 1434h188zM1464 688h-489v158h616v-170q-95 -95 -154 -190q-56 -90 -83 -206q-28 -118 -29 -280h-215q1 229 98 408q95 177 256 274v6z" />
    <glyph glyph-name="uni2151" unicode="&#x2151;" horiz-adv-x="1617" 
d="M231 1200q-29 -50 -69 -72t-117 -22h-14v182q111 0 175 37t79 109h164v-846h-209v612h-9zM426 0h-188l766 1434h188zM1384 412q-15 -62 -65 -98q-52 -38 -145 -38q-124 0 -204 79q-81 79 -81 214q0 138 97 214q98 77 239 77q175 0 264 -110q90 -111 90 -314
q0 -216 -90 -338q-90 -121 -268 -121q-118 0 -211 58t-109 176h189q12 -43 43 -65q30 -21 88 -21q91 0 132 70q40 69 42 217h-11zM1119 667q-38 -41 -38 -98q0 -62 38 -103q37 -40 104 -40t107 40t40 103q0 58 -39 97q-40 40 -106 41q-69 0 -106 -40z" />
    <glyph glyph-name="uni2152" unicode="&#x2152;" horiz-adv-x="2197" 
d="M231 1200q-29 -50 -69 -72t-117 -22h-14v182q111 0 175 37t79 109h164v-846h-209v612h-9zM426 0h-188l766 1434h188zM1108 612q-27 -47 -70 -71q-41 -23 -116 -23h-15v182q111 0 175 37t79 109h164v-846h-209v612h-8zM1510 92q-93 117 -93 324q0 208 93 325t278 117
q182 0 275 -117q94 -118 94 -325q0 -206 -94 -324q-93 -117 -275 -117q-185 0 -278 117zM1907 205q37 71 37 211q0 141 -37 212q-37 72 -119 72q-86 0 -122 -71q-36 -72 -36 -213q0 -142 36 -212q36 -71 122 -71q82 0 119 72z" />
    <glyph glyph-name="uni2153" unicode="&#x2153;" horiz-adv-x="1609" 
d="M231 1200q-29 -50 -69 -72t-117 -22h-14v182q111 0 175 37t79 109h164v-846h-209v612h-9zM426 0h-188l766 1434h188zM1374 446q93 -6 151 -60t58 -144q0 -127 -92 -198t-252 -71q-157 0 -258 75t-102 228h196q0 -147 164 -147q60 0 97 31q36 30 36 86t-34 86t-101 30h-72
v142h76q123 0 123 100q0 45 -34 72q-33 26 -91 26q-64 0 -99 -29q-37 -30 -38 -102h-199q2 158 98 223q95 64 246 64q141 0 227 -62q87 -63 87 -169q0 -72 -51 -120q-49 -46 -136 -52v-9z" />
    <glyph glyph-name="uni2154" unicode="&#x2154;" horiz-adv-x="1859" 
d="M27 756l123 86q138 95 202 145q66 51 102 99q35 47 35 102t-32 81q-33 27 -84 27q-62 0 -98 -32q-37 -33 -39 -97h-197q1 138 94 214q92 75 246 75q140 0 228 -71q87 -71 87 -199q0 -84 -47 -149q-45 -63 -121 -117q-90 -64 -241 -160l2 -10q66 8 198 8h203v-170h-661
v168zM676 0h-189l766 1434h189zM1624 446q93 -6 151 -60t58 -144q0 -127 -92 -198t-252 -71q-157 0 -258 75q-102 76 -103 228h197q0 -147 164 -147q60 0 97 31q36 30 36 86t-34 86t-101 30h-72v142h76q123 0 123 100q0 45 -34 72q-33 26 -91 26q-64 0 -99 -29
q-37 -30 -38 -102h-199q2 158 98 223q95 64 246 64q140 0 226 -62q87 -63 87 -169q0 -73 -50 -120q-49 -46 -136 -52v-9z" />
    <glyph glyph-name="uni2155" unicode="&#x2155;" horiz-adv-x="1595" 
d="M231 1200q-29 -50 -69 -72t-117 -22h-14v182q111 0 175 37t79 109h164v-846h-209v612h-9zM426 0h-188l766 1434h188zM1488 482q79 -80 79 -206q0 -94 -45 -163q-46 -70 -121 -107t-166 -37q-145 0 -243 68t-105 196h194q15 -114 152 -114q66 0 103 40q38 41 38 111
q0 69 -40 110q-40 42 -103 42q-55 0 -89 -21t-55 -67l-184 41l80 467h524v-158h-364l-43 -219l8 -2q22 46 66 73q45 27 112 27q122 0 202 -81z" />
    <glyph glyph-name="uni2156" unicode="&#x2156;" horiz-adv-x="1845" 
d="M27 756l123 86q138 95 202 145q66 51 102 99q35 47 35 102t-32 81q-33 27 -84 27q-62 0 -98 -32q-37 -33 -39 -97h-197q1 138 94 214q92 75 246 75q140 0 228 -71q87 -71 87 -199q0 -84 -47 -149q-45 -63 -121 -117q-90 -64 -241 -160l2 -10q66 8 198 8h203v-170h-661
v168zM676 0h-189l766 1434h189zM1738 482q79 -80 79 -206q0 -94 -45 -163q-46 -70 -121 -107t-166 -37q-145 0 -243 68t-105 196h194q15 -114 152 -114q66 0 103 40q38 41 38 111q0 69 -40 110q-40 42 -103 42q-55 0 -89 -21t-55 -67l-184 41l80 467h524v-158h-364l-43 -219
l8 -2q22 47 65 73q45 27 113 27q122 0 202 -81z" />
    <glyph glyph-name="uni2157" unicode="&#x2157;" horiz-adv-x="1798" 
d="M522 1044q93 -6 151 -60t58 -144q0 -127 -92 -198t-252 -71q-157 0 -258 75t-102 228h196q0 -147 164 -147q60 0 97 31q36 30 36 86t-34 86q-36 31 -101 31h-72v141h76q123 0 123 100q0 45 -34 72q-33 26 -91 26q-64 0 -99 -29q-37 -30 -38 -102h-199q1 157 99 223
q95 64 245 64q141 0 227 -62q87 -63 87 -169q0 -72 -51 -120q-49 -46 -136 -52v-9zM629 0h-189l766 1434h189zM1691 482q78 -79 78 -206q0 -94 -45 -163q-46 -71 -120 -107q-75 -37 -166 -37q-145 0 -243 68t-105 196h194q15 -114 152 -114q66 0 103 40q38 41 38 111
q0 69 -40 110q-41 42 -103 42q-54 0 -89 -21q-34 -21 -55 -67l-184 41l80 467h524v-158h-364l-43 -219l8 -2q22 47 65 73q45 27 113 27q123 0 202 -81z" />
    <glyph glyph-name="uni2158" unicode="&#x2158;" horiz-adv-x="1832" 
d="M662 586h-209v182h-410v195l393 471h223v-508h113v-158h-110v-182zM205 926h256v327h-8q-29 -69 -150 -213zM664 0h-189l766 1434h189zM1725 482q79 -80 79 -206q0 -94 -45 -163q-46 -70 -121 -107t-165 -37q-145 0 -243 68q-99 68 -106 196h195q15 -114 151 -114
q67 0 104 40q38 41 38 111q0 69 -40 110q-40 42 -104 42q-54 0 -89 -21q-33 -20 -54 -67l-184 41l80 467h524v-158h-365l-43 -219l9 -2q22 47 65 73q45 27 113 27q122 0 201 -81z" />
    <glyph glyph-name="uni2159" unicode="&#x2159;" horiz-adv-x="1585" 
d="M231 1200q-29 -50 -69 -72t-117 -22h-14v182q111 0 175 37t79 109h164v-846h-209v612h-9zM426 0h-188l766 1434h188zM1061 420q12 60 64 97q53 38 147 38q120 0 203 -78q81 -77 81 -207q0 -143 -97 -221t-238 -78q-175 0 -267 111q-92 112 -92 313q0 217 92 339t269 122
q121 0 212 -57t109 -178h-188q-12 42 -44 64q-33 22 -89 22q-90 0 -131 -71t-41 -216h10zM1326 165q38 41 38 97q0 64 -39 105t-104 41t-106 -41q-40 -40 -40 -105q0 -57 39 -96q40 -40 107 -41q68 0 105 40z" />
    <glyph glyph-name="uni215A" unicode="&#x215a;" horiz-adv-x="1761" 
d="M634 1074q79 -80 79 -206q0 -94 -45 -163q-46 -70 -121 -107t-166 -37q-145 0 -243 68t-105 196h194q15 -114 152 -114q66 0 103 40q38 41 38 111q0 69 -40 110q-40 42 -103 42q-55 0 -89 -21t-55 -67l-184 41l80 467h524v-158h-364l-43 -219l8 -2q21 46 65 72
q47 28 113 28q122 0 202 -81zM602 0h-188l766 1434h188zM1237 420q12 59 65 97t146 38q120 0 203 -78q82 -78 82 -207q0 -143 -98 -221q-97 -78 -238 -78q-175 0 -267 111q-92 112 -92 313q0 217 92 339t269 122q121 0 212 -57t109 -178h-188q-12 42 -44 64q-33 22 -89 22
q-90 0 -131 -71t-41 -216h10zM1502 165q38 41 38 97q0 64 -39 105t-104 41t-106 -41q-40 -40 -40 -105q0 -57 39 -96q40 -40 107 -41q68 0 105 40z" />
    <glyph glyph-name="oneeighth" unicode="&#x215b;" horiz-adv-x="1630" 
d="M231 1200q-29 -50 -69 -72t-117 -22h-14v182q111 0 175 37t79 109h164v-846h-209v612h-9zM420 0h-189l766 1434h189zM968 38q-94 65 -94 185q0 81 46 139q45 57 131 74v10q-65 11 -102 60q-38 50 -38 125q0 105 85 166t235 61q146 0 228 -61q83 -62 83 -166
q0 -76 -40 -125q-41 -50 -101 -60v-10q85 -17 131 -75q47 -59 47 -138q0 -121 -93 -185q-94 -65 -255 -65q-169 0 -263 65zM1325 525q35 30 35 81q0 54 -36 82q-37 29 -97 29t-99 -28q-36 -26 -36 -79q0 -55 35 -84q36 -30 104 -30q61 0 94 29zM1338 158q40 30 42 90
q0 55 -41 87t-108 32q-73 0 -116 -31q-42 -30 -42 -86q0 -60 42 -91q43 -32 116 -32q65 0 107 31z" />
    <glyph glyph-name="threeeighths" unicode="&#x215c;" horiz-adv-x="1814" 
d="M522 1044q93 -6 151 -60t58 -144q0 -127 -92 -198t-252 -71q-157 0 -258 75t-102 228h196q0 -147 164 -147q60 0 97 31q36 30 36 86t-34 86q-36 31 -101 31h-72v141h76q123 0 123 100q0 45 -34 72q-33 26 -91 26q-64 0 -99 -29q-37 -30 -38 -102h-199q1 157 99 223
q95 64 245 64q141 0 227 -62q87 -63 87 -169q0 -72 -51 -120q-49 -46 -136 -52v-9zM633 0h-189l766 1434h189zM1177 38q-94 65 -94 185q0 82 45 139t132 74v10q-65 11 -102 60q-38 50 -38 125q0 105 85 166t235 61q146 0 228 -61q83 -62 83 -166q0 -76 -40 -125
q-41 -50 -101 -60v-10q85 -17 131 -75q47 -59 47 -138q0 -121 -93 -185q-94 -65 -255 -65q-169 0 -263 65zM1534 525q35 30 35 81q0 54 -36 82q-37 29 -97 29t-99 -28q-37 -27 -37 -79q0 -54 36 -84t104 -30q61 0 94 29zM1547 158q41 30 42 90q0 55 -41 87t-108 32
q-73 0 -116 -31q-42 -30 -42 -86q0 -60 42 -91q43 -32 116 -32q65 0 107 31z" />
    <glyph glyph-name="fiveeighths" unicode="&#x215d;" horiz-adv-x="1798" 
d="M634 1074q79 -80 79 -206q0 -94 -45 -163q-46 -70 -121 -107t-166 -37q-145 0 -243 68t-105 196h194q15 -114 152 -114q66 0 103 40q38 41 38 111q0 69 -40 110q-40 42 -103 42q-55 0 -89 -21t-55 -67l-184 41l80 467h524v-158h-364l-43 -219l8 -2q21 46 65 72
q47 28 113 28q122 0 202 -81zM616 0h-188l766 1434h188zM1158 38q-93 65 -93 185q0 82 45 139t131 74v10q-64 11 -101 60q-38 50 -38 125q0 105 85 166t234 61q147 0 229 -61q83 -62 83 -166q0 -76 -40 -125q-41 -50 -102 -60v-10q85 -17 131 -75q47 -59 47 -138
q0 -121 -93 -185q-94 -65 -255 -65q-169 0 -263 65zM1516 525q34 30 34 81q0 54 -36 82q-37 29 -97 29q-59 0 -98 -28q-37 -27 -37 -79q0 -54 36 -84t103 -30q62 0 95 29zM1529 158q41 30 42 90q0 55 -41 87t-109 32q-72 0 -115 -31q-42 -30 -42 -86q0 -60 42 -91
q43 -32 115 -32q66 0 108 31z" />
    <glyph glyph-name="seveneighths" unicode="&#x215e;" horiz-adv-x="1644" 
d="M520 1276h-489v158h616v-170q-95 -95 -154 -190q-55 -89 -83 -207t-29 -279h-215q1 228 98 407q96 178 256 275v6zM438 0h-188l766 1434h188zM1002 38q-93 65 -93 185q0 82 45 139t131 74v10q-64 11 -101 60q-38 50 -38 125q0 105 85 166t235 61q146 0 228 -61
q83 -62 83 -166q0 -76 -40 -125q-41 -50 -101 -60v-10q85 -17 131 -75q47 -59 47 -138q0 -121 -93 -185q-94 -65 -255 -65q-170 0 -264 65zM1360 525q35 30 35 81q0 54 -36 82q-37 29 -97 29t-99 -28q-37 -27 -37 -79q0 -54 36 -84t104 -30q61 0 94 29zM1373 158
q41 30 42 90q0 55 -41 87t-108 32q-73 0 -116 -31q-42 -30 -42 -86q0 -60 42 -91q43 -32 116 -32q65 0 107 31z" />
    <glyph glyph-name="uni2189" unicode="&#x2189;" horiz-adv-x="1828" 
d="M134 688q-93 117 -93 324q0 208 93 325t278 117q182 0 275 -117t93 -325q0 -207 -93 -324t-275 -117q-185 0 -278 117zM530 801q37 71 37 211q0 141 -37 212q-38 72 -118 72q-86 0 -122 -71q-36 -72 -36 -213q0 -142 36 -212q36 -71 122 -71q80 0 118 72zM645 0h-188
l766 1434h188zM1593 446q93 -6 151 -60t58 -144q0 -127 -92 -198t-252 -71q-158 0 -258 75t-102 228h196q0 -147 164 -147q60 0 97 31q36 30 36 86q0 57 -33 86q-34 30 -102 30h-72v142h76q123 0 123 100q0 45 -34 72q-33 26 -91 26q-64 0 -99 -29q-37 -30 -38 -102h-199
q1 157 99 223q95 64 245 64q141 0 227 -62q87 -63 87 -169q0 -73 -50 -120q-49 -46 -137 -52v-9z" />
    <glyph glyph-name="arrowleft" unicode="&#x2190;" horiz-adv-x="1755" 
d="M1014 1434q0 -238 -114 -373q-116 -137 -286 -189v-12h1000v-278h-1000v-15q172 -52 285 -190q115 -141 115 -377h-326q0 199 -137 344q-135 142 -412 262v221q275 119 412 263q137 145 137 344h326z" />
    <glyph glyph-name="arrowup" unicode="&#x2191;" horiz-adv-x="1753" 
d="M150 885q157 0 267 67q111 68 191 185q81 119 158 297h221q79 -180 159 -297q80 -118 190 -185t268 -67v-318q-242 0 -376 110q-136 111 -186 281h-16v-958h-301v958h-12q-51 -169 -188 -281q-134 -110 -375 -110v318z" />
    <glyph glyph-name="arrowright" unicode="&#x2192;" horiz-adv-x="1755" 
d="M1067 1434q0 -199 137 -344q137 -144 412 -263v-221q-277 -120 -412 -262q-137 -145 -137 -344h-326q0 236 115 377q113 138 285 190v15h-1000v278h1000v12q-170 52 -286 189q-114 135 -114 373h326z" />
    <glyph glyph-name="arrowdown" unicode="&#x2193;" horiz-adv-x="1753" 
d="M150 866q242 0 375 -109q136 -112 188 -282h12v959h301v-959h16q51 171 186 282q133 109 376 109v-317q-156 0 -268 -68q-111 -67 -190 -184q-80 -117 -159 -297h-221q-77 178 -158 297q-79 116 -191 184t-267 68v317z" />
    <glyph glyph-name="arrowboth" unicode="&#x2194;" horiz-adv-x="2320" 
d="M1772 1434q0 -199 137 -344t411 -263v-221q-275 -119 -411 -262q-137 -145 -137 -344h-326q0 236 115 377q113 139 284 190v15h-1370v-15q172 -52 285 -190q114 -140 114 -377h-325q0 199 -137 344q-135 142 -412 262v221q275 119 412 263q137 145 137 344h325
q0 -239 -113 -373q-116 -137 -286 -189v-12h1370v12q-169 51 -285 189q-114 135 -114 373h326z" />
    <glyph glyph-name="arrowupdn" unicode="&#x2195;" horiz-adv-x="1779" 
d="M1047 92h16q51 172 185 282q133 109 376 109v-317q-155 0 -267 -68t-191 -184q-77 -113 -158 -297h-222q-79 182 -157 297t-192 184q-112 68 -267 68v317q243 0 377 -109q135 -110 186 -282h15v1157h-15q-51 -171 -186 -281q-136 -110 -377 -110v318q157 0 267 67
q114 69 192 184t157 297h222q81 -184 158 -297q79 -116 191 -184q110 -67 267 -67v-318q-242 0 -376 110q-135 110 -185 281h-16v-1157z" />
    <glyph glyph-name="uni2196" unicode="&#x2196;" horiz-adv-x="1697" 
d="M1552 1171q-82 -94 -194 -136t-240 -42q-110 0 -215 27q-104 27 -180 67l-8 -8l844 -815l-201 -213l-852 826l-8 -9q39 -78 63 -175q25 -102 25 -197q0 -266 -172 -439l-219 217q151 151 151 410q0 222 -115 522l150 142q281 -115 520 -115q274 0 434 158z" />
    <glyph glyph-name="uni2197" unicode="&#x2197;" horiz-adv-x="1665" 
d="M360 1391q160 -158 435 -158q239 0 520 115l149 -142q-114 -297 -114 -522q0 -259 151 -410l-219 -217q-172 173 -172 439q0 95 25 197q24 97 63 175l-8 9l-852 -826l-201 213l844 815l-8 8q-76 -40 -180 -67q-105 -27 -215 -27q-128 0 -240 42q-113 42 -195 136z" />
    <glyph glyph-name="uni2198" unicode="&#x2198;" horiz-adv-x="1697" 
d="M145 256q83 92 195 135q111 43 240 43q114 0 215 -26q102 -26 178 -68l10 8l-844 813l201 213l850 -823l8 6q-37 75 -62 175q-24 98 -24 198q0 121 41 235q41 113 131 203l219 -217q-151 -151 -151 -410q0 -223 114 -520l-149 -143q-281 115 -522 115q-277 0 -433 -156z
" />
    <glyph glyph-name="uni2199" unicode="&#x2199;" horiz-adv-x="1697" 
d="M1335 37q-156 156 -434 156q-239 0 -520 -115l-150 143q115 300 115 520q0 259 -151 410l219 217q91 -90 131 -203q41 -114 41 -233q0 -98 -25 -200q-24 -97 -63 -175l8 -6l852 823l201 -213l-844 -813l8 -8q80 42 180 68q101 26 215 26q129 0 240 -43t194 -135z" />
    <glyph glyph-name="uni21A9" unicode="&#x21a9;" horiz-adv-x="1878" 
d="M1623 712q-115 -108 -318 -108h-893v-6q80 -27 125 -90q45 -64 47 -193h-138q-5 125 -74 187q-71 64 -233 116v99q156 49 230 116q72 65 77 189h138q-5 -132 -48 -196q-43 -63 -124 -91v-4h878q148 0 232 73q82 72 82 208q0 138 -82 210q-83 72 -232 72h-444v127h459
q204 0 318 -107q116 -108 116 -302q0 -192 -116 -300z" />
    <glyph glyph-name="uni21AA" unicode="&#x21aa;" horiz-adv-x="1878" 
d="M255 1314q114 107 318 107h459v-127h-446q-150 0 -231 -72t-81 -210q0 -136 81 -208q82 -73 231 -73h878v4q-78 29 -123 93q-46 65 -47 194h138q2 -123 75 -189q74 -66 232 -116v-99q-164 -53 -235 -116q-70 -63 -72 -187h-138q2 129 47 193q45 63 123 90v6h-891
q-203 0 -318 108q-116 108 -116 300q0 194 116 302z" />
    <glyph glyph-name="uni21B0" unicode="&#x21b0;" horiz-adv-x="1783" 
d="M139 1266q162 51 231 114q71 66 76 189h138q-5 -131 -48 -194q-42 -61 -124 -89v-6h1233v-1280h-132v1153h-1101v-6q81 -27 125 -91q46 -65 47 -194h-138q-5 127 -74 189q-71 64 -233 116v99z" />
    <glyph glyph-name="uni21B1" unicode="&#x21b1;" horiz-adv-x="1783" 
d="M1645 1167q-162 -52 -233 -116q-70 -63 -75 -189h-137q1 129 47 194q44 64 125 91v6h-1102v-1153h-131v1280h1233v6q-82 28 -124 89q-43 63 -48 194h137q4 -123 77 -189q69 -63 231 -114v-99z" />
    <glyph glyph-name="uni21B2" unicode="&#x21b2;" horiz-adv-x="1783" 
d="M139 401q160 52 233 117q69 62 74 189h138q-1 -129 -47 -194q-44 -64 -125 -91v-6h1101v1153h132v-1280h-1233v-6q82 -28 124 -89q43 -63 48 -194h-138q-4 122 -76 188q-70 65 -231 115v98z" />
    <glyph glyph-name="uni21B3" unicode="&#x21b3;" horiz-adv-x="1783" 
d="M1645 303q-161 -50 -231 -115q-73 -67 -77 -188h-137q5 131 48 194q42 61 124 89v6h-1233v1280h131v-1153h1102v6q-81 27 -125 91q-46 65 -47 194h137q5 -126 75 -189q73 -65 233 -117v-98z" />
    <glyph glyph-name="uni21B4" unicode="&#x21b4;" horiz-adv-x="1847" 
d="M1307 0q-51 159 -117 232q-63 70 -189 75v137q133 -5 195 -49q63 -45 90 -123h6v1166h-1153v131h1280v-1297h6q28 82 89 124q63 43 194 48v-137q-121 -4 -188 -77q-65 -71 -115 -230h-98z" />
    <glyph glyph-name="uni21BB" unicode="&#x21bb;" horiz-adv-x="2060" 
d="M239 1111q99 170 270 265q170 94 376 94q205 0 376 -93t270 -264t99 -390v-29h6q27 78 90 123q62 44 195 49v-137q-123 -5 -189 -78q-67 -75 -116 -229h-107q-52 160 -116 232q-63 70 -187 75v137q130 -2 193 -48q63 -47 90 -124h6v29q0 184 -83 326t-223 218t-304 76
q-166 0 -305 -76q-141 -77 -223 -218q-83 -142 -83 -326q0 -185 83 -330q81 -142 223 -221q140 -78 305 -78q131 0 252 48q119 47 209 137l92 -91q-110 -106 -254 -164q-141 -57 -299 -57q-200 0 -370 94q-171 94 -273 266q-103 173 -103 392t100 392z" />
    <glyph glyph-name="uni21C4" unicode="&#x21c4;" horiz-adv-x="1830" 
d="M1583 1001h-1171v-4q80 -29 125 -92q46 -64 47 -194h-138q-5 125 -74 189q-71 65 -233 116v100q161 50 231 115q72 66 76 186h138q-4 -128 -48 -191q-42 -61 -124 -89v-9h1171v-127zM248 303v127h1171v8q-81 28 -125 89q-46 64 -47 192h137q4 -121 77 -187
q69 -63 231 -114v-101q-164 -52 -233 -115q-70 -64 -75 -190h-137q2 131 47 195q45 63 125 92v4h-1171z" />
    <glyph glyph-name="uni21C5" unicode="&#x21c5;" horiz-adv-x="1683" 
d="M1255 49h-127v1172h-4q-29 -80 -92 -125q-64 -46 -194 -47v137q124 1 189 74q66 73 116 233h100q50 -156 115 -231q64 -75 186 -76v-137q-128 1 -192 47q-63 45 -90 125h-7v-1172zM557 1384v-1171h6q27 80 90 125q64 45 193 47v-137q-124 -5 -187 -77t-114 -230h-101
q-51 161 -115 233q-65 72 -190 74v137q131 -2 195 -47q63 -45 92 -125h4v1171h127z" />
    <glyph glyph-name="partialdiff" unicode="&#x2202;" horiz-adv-x="1335" 
d="M1137 1345q120 -124 120 -346q0 -289 -94 -538q-85 -229 -250 -362q-163 -132 -383 -132q-132 0 -238 53q-104 52 -165 151q-59 96 -59 228q0 155 73 283q73 129 200 204q126 75 275 75q130 0 214 -73q83 -72 83 -208q0 -20 -4 -53l15 -2q25 123 37 212q10 77 10 156
q0 246 -207 246q-84 0 -149 -48q-64 -48 -97 -130h-293q67 194 216 302q147 107 352 107q223 0 344 -125zM702 240q65 46 105 127q39 79 39 170q0 103 -49 159q-50 58 -135 58q-78 0 -145 -47q-64 -45 -106 -127q-40 -79 -40 -168q0 -106 49 -162q50 -57 139 -57
q76 0 143 47z" />
    <glyph glyph-name="product" unicode="&#x220f;" horiz-adv-x="2009" 
d="M115 1434h1779v-252h-262v-1559h-315v1559h-625v-1559h-315v1559h-262v252z" />
    <glyph glyph-name="summation" unicode="&#x2211;" horiz-adv-x="1265" 
d="M51 -377v246l307 350q70 84 150 165q66 67 156 140v11q-95 77 -155 140q-94 98 -169 181l-289 330v248h1143v-279h-313q-297 0 -453 21l-8 -13q115 -98 305 -309l209 -236v-180l-201 -227q-35 -35 -51 -55q-65 -65 -120 -122q-78 -80 -142 -140l6 -13q162 21 455 21h333
v-279h-1163z" />
    <glyph glyph-name="minus" unicode="&#x2212;" horiz-adv-x="1122" 
d="M63 852h996v-244h-996v244z" />
    <glyph glyph-name="radical" unicode="&#x221a;" horiz-adv-x="1597" 
d="M1591 1188h-194l-510 -1565h-377l-287 823h-198v246h428l71 -215q89 -288 162 -604h14q42 182 78 317q27 101 82 289l301 955h430v-246z" />
    <glyph glyph-name="infinity" unicode="&#x221e;" horiz-adv-x="1697" 
d="M248 368q-88 54 -136 148q-49 96 -49 213q0 122 50 217t137 147q88 52 205 52q122 0 229 -67q104 -65 160 -191h10q57 125 161 191q105 67 228 67q178 0 285 -115q106 -113 106 -301q0 -123 -49 -217q-49 -93 -138 -146t-204 -53q-124 0 -231 68q-108 68 -158 188h-10
q-52 -119 -160 -188q-107 -68 -229 -68q-117 0 -207 55zM723 729q-121 201 -256 201q-75 0 -121 -58q-45 -57 -45 -143q0 -87 46 -143q47 -58 120 -58q135 0 256 201zM1352 586q45 57 45 143q0 90 -46 145q-47 56 -120 56q-135 0 -256 -201q121 -201 256 -201q75 0 121 58z
" />
    <glyph glyph-name="integral" unicode="&#x222b;" horiz-adv-x="1030" 
d="M129 -408q-36 0 -66 2v232q111 -6 144 -6q79 0 119 38q39 38 41 122l6 1120q2 186 95 278q94 92 282 92q61 0 151 -6q36 0 66 -2v-229l-144 4q-81 0 -122 -38q-39 -36 -39 -122l-7 -1120q-1 -181 -101 -276t-273 -95q-63 0 -152 6z" />
    <glyph glyph-name="approxequal" unicode="&#x2248;" horiz-adv-x="1081" 
d="M63 766q5 152 79 246q75 94 210 94q60 0 111 -16q43 -13 125 -46q90 -40 133 -40q48 0 71 26q22 25 33 80h193q-5 -155 -79 -247q-75 -93 -208 -93q-51 0 -104 15q-52 15 -121 44q-51 22 -86 33q-31 10 -60 10q-48 0 -71 -24q-22 -24 -33 -82h-193zM63 336q5 152 79 246
q75 94 210 94q55 0 109 -16q44 -13 125 -46q27 -12 78 -30q31 -11 57 -11q47 0 71 27q22 25 33 80h193q-5 -155 -79 -247q-75 -93 -208 -93q-51 0 -104 15q-52 15 -121 44q-51 22 -86 33q-31 10 -60 10q-48 0 -71 -24q-22 -24 -33 -82h-193z" />
    <glyph glyph-name="notequal" unicode="&#x2260;" horiz-adv-x="1122" 
d="M1059 1044v-235h-418l-59 -160h477v-235h-565l-80 -219l-84 30l69 189h-336v235h424l60 160h-484v235h572l76 207l82 -28l-66 -179h332z" />
    <glyph glyph-name="lessequal" unicode="&#x2264;" horiz-adv-x="1081" 
d="M1018 301l-955 344v262l955 344v-254l-105 -36l-55 -19q-21 -6 -192 -62q-170 -56 -336 -98v-12q223 -57 532 -162l39 -12l117 -43v-252zM1018 223v-223h-955v223h955z" />
    <glyph glyph-name="greaterequal" unicode="&#x2265;" horiz-adv-x="1081" 
d="M63 301v252l117 43l39 12q306 105 533 162v12q-180 45 -504 152q-29 7 -45 13l-20 7.5t-17 6.5l-103 36v254l955 -344v-262zM1018 0h-955v223h955v-223z" />
    <glyph glyph-name="uni2460" unicode="&#x2460;" horiz-adv-x="1925" 
d="M479 -133q-221 125 -350 342t-129 481t130 481q131 218 350 342q221 125 483 125q265 0 486 -125q220 -124 348 -343q128 -218 128 -480q0 -264 -129 -481t-350 -342t-483 -125q-263 0 -484 125zM1338 47q169 94 268 262q98 166 98 381t-97 384q-97 170 -267 264
q-172 96 -375 96q-209 0 -380 -97t-266 -265q-96 -169 -96 -382q0 -212 98 -381q97 -167 267 -262q169 -94 377 -94q204 0 373 94zM905 897q-33 -53 -77 -77q-42 -23 -128 -23h-16v198q247 0 277 158h178v-924h-228v668h-6z" />
    <glyph glyph-name="uni2461" unicode="&#x2461;" horiz-adv-x="1933" 
d="M479 -133q-221 125 -350 342t-129 481t130 481q131 218 350 342q221 125 483 125q265 0 486 -125q220 -124 348 -343q128 -218 128 -480q0 -264 -129 -481t-350 -342t-483 -125q-263 0 -484 125zM1338 47q169 94 268 262q98 166 98 381t-97 384q-97 170 -267 264
q-172 96 -375 96q-209 0 -380 -97t-266 -265q-96 -169 -96 -382q0 -212 98 -381q97 -167 267 -262q169 -94 377 -94q204 0 373 94zM602 432q122 84 129 90q153 106 225 162q69 53 112 109q40 52 40 110q0 59 -36 89t-95 30q-64 0 -105 -35q-42 -35 -43 -104h-215
q4 151 105 232t266 81q153 0 250 -77q96 -77 96 -218q0 -85 -47 -155q-43 -64 -122 -124q-78 -59 -232 -159q-6 -1 -47 -29l4 -8q94 8 215 8h221v-186h-721v184z" />
    <glyph glyph-name="uni2462" unicode="&#x2462;" horiz-adv-x="1933" 
d="M479 -133q-221 125 -350 342t-129 481t130 481q131 218 350 342q221 125 483 125q265 0 486 -125q220 -124 348 -343q128 -218 128 -480q0 -264 -129 -481t-350 -342t-483 -125q-263 0 -484 125zM1338 47q169 94 268 262q98 166 98 381t-97 384q-97 170 -267 264
q-172 96 -375 96q-209 0 -380 -97t-266 -265q-96 -169 -96 -382q0 -212 98 -381q97 -167 267 -262q169 -94 377 -94q204 0 373 94zM690 286q-110 80 -110 249h215q0 -162 180 -162q66 0 104 34q39 34 39 93q0 131 -147 131h-78v151h84q133 0 133 111q0 51 -38 80
q-37 28 -99 28q-68 0 -108 -28t-40 -90h-219q1 150 110 219q108 69 267 69q154 0 247 -68q95 -69 95 -185q0 -82 -54 -131q-55 -50 -151 -56v-10q103 -6 166 -66q64 -61 64 -157q0 -136 -103 -215q-102 -78 -276 -78q-170 0 -281 81z" />
    <glyph glyph-name="uni2463" unicode="&#x2463;" horiz-adv-x="1933" 
d="M479 -133q-221 125 -350 342t-129 481t130 481q131 218 350 342q221 125 483 125q265 0 486 -125q220 -124 348 -343q128 -218 128 -480q0 -264 -129 -481t-350 -342t-483 -125q-263 0 -484 125zM1338 47q169 94 268 262q98 166 98 381t-97 384q-97 170 -267 264
q-172 96 -375 96q-209 0 -380 -97t-266 -265q-96 -169 -96 -382q0 -212 98 -381q97 -167 267 -262q169 -94 377 -94q204 0 373 94zM1219 248h-228v198h-448v213l430 517h246v-558h122v-172h-122v-198zM721 618h278v361h-8q-19 -45 -55 -93q-68 -90 -109 -141z" />
    <glyph glyph-name="uni2464" unicode="&#x2464;" horiz-adv-x="1933" 
d="M1449 1513q220 -124 348 -343q128 -218 128 -480q0 -264 -129 -481t-350 -342t-483 -125q-263 0 -484 125t-350 342t-129 481t130 481q131 218 350 342q221 125 483 125q265 0 486 -125zM1338 47q169 94 268 262q98 166 98 381t-97 384q-97 170 -267 264q-172 96 -375 96
q-209 0 -380 -97t-266 -265q-96 -169 -96 -382q0 -212 98 -381q97 -167 267 -262q169 -94 377 -94q204 0 373 94zM1250 760q87 -88 87 -228q0 -103 -49 -179q-50 -77 -133 -117q-85 -41 -182 -41q-161 0 -266 74q-108 76 -115 216h211q17 -125 166 -125q74 0 114 43
q41 44 41 123q0 75 -43 121q-44 47 -112 47q-62 0 -99 -23q-38 -24 -61 -75l-203 45l90 512h576v-174h-402l-47 -240l8 -4q23 52 73 82q51 31 124 31q135 0 222 -88z" />
    <glyph glyph-name="uni2465" unicode="&#x2465;" horiz-adv-x="1933" 
d="M479 -133q-221 125 -350 342t-129 481t130 481q131 218 350 342q221 125 483 125q265 0 486 -125q220 -124 348 -343q128 -218 128 -480q0 -264 -129 -481t-350 -342t-483 -125q-263 0 -484 125zM1338 47q169 94 268 262q98 166 98 381t-97 384q-97 170 -267 264
q-172 96 -375 96q-209 0 -380 -97t-266 -265q-96 -169 -96 -382q0 -212 98 -381q97 -167 267 -262q169 -94 377 -94q204 0 373 94zM799 696q15 67 71 107q58 41 160 41q134 0 222 -85q89 -86 89 -227q0 -155 -106 -240t-260 -85q-191 0 -291 121t-100 342q0 237 100 370
q101 134 293 134q129 0 231 -64q101 -63 119 -195h-205q-16 48 -48 71q-35 24 -97 24q-98 0 -142 -77q-46 -80 -47 -237h11zM1091 418q42 44 42 106q0 71 -43 114q-44 44 -115 44q-72 0 -116 -44t-44 -114q0 -61 43 -104q44 -44 117 -45q74 0 116 43z" />
    <glyph glyph-name="uni2466" unicode="&#x2466;" horiz-adv-x="1933" 
d="M479 -133q-221 125 -350 342t-129 481t130 481q131 218 350 342q221 125 483 125q265 0 486 -125q220 -124 348 -343q128 -218 128 -480q0 -264 -129 -481t-350 -342t-483 -125q-263 0 -484 125zM1338 47q169 94 268 262q98 166 98 381t-97 384q-97 170 -267 264
q-172 96 -375 96q-209 0 -380 -97t-266 -265q-96 -169 -96 -382q0 -212 98 -381q97 -167 267 -262q169 -94 377 -94q204 0 373 94zM1163 961h-536v172h676v-187q-106 -106 -169 -208q-64 -104 -92 -227q-27 -121 -32 -306h-236q4 250 110 446q105 194 279 301v9z" />
    <glyph glyph-name="uni2467" unicode="&#x2467;" horiz-adv-x="1933" 
d="M479 -133q-221 125 -350 342t-129 481t130 481q131 218 350 342q221 125 483 125q265 0 486 -125q220 -124 348 -343q128 -218 128 -480q0 -264 -129 -481t-350 -342t-483 -125q-263 0 -484 125zM1338 47q169 94 268 262q98 166 98 381t-97 384q-97 170 -267 264
q-172 96 -375 96q-209 0 -380 -97t-266 -265q-96 -169 -96 -382q0 -212 98 -381q97 -167 267 -262q169 -94 377 -94q204 0 373 94zM683 271q-103 69 -103 206q0 95 51 156t141 78v12q-66 11 -109 65q-45 57 -45 136q0 111 97 181q96 69 254 69q157 0 251 -68q93 -68 93 -182
q0 -80 -45 -136q-44 -54 -111 -65v-12q89 -17 141 -79q54 -65 54 -155q0 -136 -104 -205t-279 -69q-184 0 -286 68zM1074 809q38 33 38 88q0 57 -39 89q-40 32 -106 32q-67 0 -109 -31q-41 -30 -41 -86q0 -57 40 -91t112 -34q67 0 105 33zM1089 407q45 35 46 93
q0 64 -48 101q-47 36 -118 36q-77 0 -123 -36q-47 -36 -47 -99q0 -60 45 -95q44 -34 125 -34q77 0 120 34z" />
    <glyph glyph-name="uni2468" unicode="&#x2468;" horiz-adv-x="1933" 
d="M1454 1513q221 -125 350 -342t129 -481t-130 -481q-131 -218 -350 -342q-221 -125 -482 -125q-266 0 -487 125q-220 124 -348 343q-128 218 -128 480q0 264 129 481t350 342t484 125q262 0 483 -125zM595 1333q-168 -93 -267 -262q-99 -168 -99 -381q0 -214 98 -384
t266 -264q170 -95 376 -95q211 0 380 96t265 265q96 170 96 382q0 214 -97 381t-267 262q-169 94 -377 94q-205 0 -374 -94zM1135 684q-15 -65 -72 -106q-58 -41 -160 -41q-134 0 -222 85q-89 86 -89 226q0 156 106 241t260 85q191 0 291 -121q101 -122 101 -342
q0 -237 -101 -371q-100 -133 -293 -133q-130 0 -231 63t-119 195h205q16 -48 48 -71q33 -23 97 -23q100 0 143 76q45 78 46 237h-10zM843 963q-42 -43 -42 -107q0 -71 43 -114q44 -44 114 -44q72 0 116 44t44 114q0 64 -43 106q-44 43 -117 44q-73 0 -115 -43z" />
    <glyph glyph-name="uni24EA" unicode="&#x24ea;" horiz-adv-x="1925" 
d="M479 -133q-221 125 -350 342t-129 481t130 481q131 218 350 342q221 125 483 125q265 0 486 -125q220 -124 348 -343q128 -218 128 -480q0 -264 -129 -481t-350 -342t-483 -125q-263 0 -484 125zM1338 47q169 94 268 262q98 166 98 381t-97 384q-97 170 -267 264
q-172 96 -375 96q-209 0 -380 -97t-266 -265q-96 -169 -96 -382q0 -212 98 -381q97 -167 267 -262q169 -94 377 -94q204 0 373 94zM663 333q-102 128 -102 355q0 226 103 356t303 130q201 0 303 -128q102 -127 102 -358q0 -228 -102 -355q-102 -128 -303 -128
q-202 0 -304 128zM1098 457q41 79 41 231q0 154 -41 234q-40 79 -131 79q-92 0 -132 -79t-40 -234q0 -154 40 -231q41 -78 132 -78t131 78z" />
    <glyph glyph-name="uni24FF" unicode="&#x24ff;" 
d="M484 -132q-223 125 -354 343q-130 217 -130 479q0 264 130 481q131 219 354 342q226 125 495 125q271 0 497 -125q224 -124 353 -342q129 -217 129 -481t-130 -481q-131 -219 -354 -342q-226 -125 -495 -125q-270 0 -495 126zM1282 333q102 128 102 355q0 230 -102 358
t-303 128q-200 0 -303 -130t-103 -356q0 -228 102 -355q102 -128 304 -128q201 0 303 128zM847 457q-40 77 -40 231q0 155 40 234t132 79q91 0 131 -79q41 -80 41 -234q0 -152 -41 -231q-40 -78 -131 -78t-132 78z" />
    <glyph glyph-name="filledbox" unicode="&#x25a0;" 
d="M1909 -221h-1860v1818h1860v-1818z" />
    <glyph glyph-name="uni25A1" unicode="&#x25a1;" 
d="M1909 -221h-1860v1818h1860v-1818zM274 1397v-1417h1409v1417h-1409z" />
    <glyph glyph-name="lozenge" unicode="&#x25ca;" horiz-adv-x="1241" 
d="M459 1434h323l420 -717l-420 -717h-323l-420 717zM629 227q40 98 79 172q50 94 101 179l82 139l-100 168q-57 96 -89 157q-27 52 -73 164h-15q-36 -96 -66 -151q-58 -106 -95 -170l-101 -168l84 -142q81 -139 106 -186q30 -57 72 -162h15z" />
    <glyph glyph-name="circle" unicode="&#x25cb;" horiz-adv-x="1925" 
d="M479 -133q-221 125 -350 342t-129 481t130 481q131 218 350 342q221 125 483 125q265 0 486 -125q220 -124 348 -343q128 -218 128 -480q0 -264 -129 -481t-350 -342t-483 -125q-263 0 -484 125zM1338 47q169 94 268 262q98 166 98 381t-97 384q-97 170 -267 264
q-172 96 -375 96q-209 0 -380 -97t-266 -265q-96 -169 -96 -382q0 -212 98 -381q97 -167 267 -262q169 -94 377 -94q204 0 373 94z" />
    <glyph glyph-name="uni25CF" unicode="&#x25cf;" 
d="M482 -130q-224 125 -353 343q-129 217 -129 479q0 265 130 482q131 219 354 342q224 124 495 124q273 0 497 -124t353 -342q129 -217 129 -482q0 -264 -130 -481q-131 -219 -354 -342q-226 -125 -495 -125q-272 0 -497 126z" />
    <glyph glyph-name="smileface" unicode="&#x263a;" horiz-adv-x="1777" 
d="M463 -10q-193 113 -308 309q-114 195 -114 424t114 424q114 194 308 308q195 114 426 114t426 -114q194 -114 308 -308q114 -195 114 -424t-114 -424q-115 -196 -308 -309q-197 -115 -426 -115t-426 115zM1231 125q159 96 250 253q92 160 92 345t-92 345
q-91 158 -250 252q-157 93 -342 93t-342 -93q-159 -94 -250 -252q-92 -160 -92 -345t92 -345q91 -157 250 -253q157 -94 342 -94t342 94zM1178 850q-33 33 -33 82q0 46 33 81q33 34 82 34q46 0 80 -34t34 -81q0 -49 -34 -82t-80 -33q-49 0 -82 33zM441 852q-33 32 -33 80
t33 80t81 32t81 -33q34 -34 34 -79q0 -47 -34 -80q-35 -33 -81 -33t-81 33zM1417 711q0 -145 -70 -266t-192 -193q-121 -72 -264 -72t-265 72q-123 73 -194 193q-72 121 -72 266h164q0 -104 49 -189q50 -87 135 -136q86 -50 183 -50q98 0 181 50q82 49 132 136q49 85 49 189
h164z" />
    <glyph glyph-name="invsmileface" unicode="&#x263b;" horiz-adv-x="1777" 
d="M463 -10q-193 113 -308 309q-114 195 -114 424t114 424q114 194 308 308q195 114 426 114t426 -114q194 -114 308 -308q114 -195 114 -424t-114 -424q-115 -196 -308 -309q-197 -115 -426 -115t-426 115zM1381 870q34 33 34 82q0 47 -34 81t-81 34q-48 0 -81 -34
q-33 -35 -33 -81q0 -49 33 -82q32 -32 81 -32q48 0 81 32zM562 872q34 33 34 80q0 45 -34 79t-81 34t-81 -33q-33 -32 -33 -80t33 -80t81 -32t81 32zM1164 234q127 75 200 201q74 127 74 276h-164q0 -107 -51 -198t-140 -144q-91 -54 -192 -54q-103 0 -194 54
q-89 53 -141 144t-52 198h-164q0 -150 75 -276q76 -127 200 -201t276 -74q149 0 273 74z" />
    <glyph glyph-name="sun" unicode="&#x263c;" horiz-adv-x="1777" 
d="M854 594l-207 -531q-17 -45 -49 -70q-30 -24 -68 -24q-51 0 -90 36t-39 87q0 49 37 92l357 443l-445 -355q-43 -36 -92 -36q-52 0 -87 38q-36 39 -36 91q0 37 24 67q25 32 70 49l527 203l-557 -82q-16 -2 -33 -2q-59 0 -92 36t-33 85q0 55 42 93q43 38 116 28l557 -82
l-525 203q-47 17 -72 50q-24 31 -24 68q0 49 36 88t87 39q48 0 92 -37l445 -356l-357 445q-37 44 -37 92q0 51 38 86t89 35q38 0 69 -24q32 -24 50 -71l205 -532l-84 565q-2 14 -2 31q0 61 36 94t87 33q49 0 85 -33t36 -94q0 -17 -2 -31l-84 -565l204 534q17 45 50 71
q30 24 67 24q51 0 90 -36t39 -87q0 -49 -37 -92l-356 -443l444 354q44 37 93 37q51 0 87 -39q35 -38 35 -88q0 -38 -23 -68q-24 -32 -71 -50l-526 -203l557 82q16 2 33 2q59 0 92 -36t33 -85q0 -55 -42 -93q-43 -38 -116 -28l-557 82l524 -203q48 -18 73 -50q23 -30 23 -69
q0 -50 -35 -88t-87 -38q-50 0 -93 36l-444 357l356 -445q37 -44 37 -92q0 -51 -38 -86t-89 -35q-37 0 -68 24q-33 25 -51 71l-204 532l84 -565q2 -14 2 -31q0 -61 -36 -94t-87 -33q-49 0 -85 33t-36 94q0 17 2 31z" />
    <glyph glyph-name="uni2661" unicode="&#x2661;" horiz-adv-x="1806" 
d="M1537 1412q101 -60 159 -163q57 -102 57 -223q0 -150 -69 -271q-71 -125 -165 -212t-255 -211q-154 -118 -228 -189q-79 -76 -118 -161h-17q-39 86 -121 162q-91 84 -231 188q-160 122 -260 214q-97 89 -166 211q-70 123 -70 269q0 121 60 223q62 105 162 163
q105 61 231 61q91 0 181 -45q89 -45 146 -119q58 -76 70 -166h17q11 90 67 166q55 74 143 119t183 45q120 0 224 -61zM1023 344q68 59 159 125q131 98 214 174q79 72 136 170q55 95 55 213q0 130 -73 211q-72 80 -191 80q-122 0 -199 -95q-75 -93 -80 -253h-262
q-8 156 -87 252q-80 96 -199 96q-125 0 -200 -80q-75 -79 -75 -211q0 -115 58 -213t139 -170q89 -79 217 -176q94 -69 162 -125q56 -47 112 -111q51 59 114 113z" />
    <glyph glyph-name="heart" unicode="&#x2665;" horiz-adv-x="1763" 
d="M879 -18q-39 85 -119 162q-84 81 -223 188q-156 118 -252 210q-97 93 -164 213q-68 122 -68 271q0 120 59 223q60 105 156 163q101 61 215 61q92 0 182 -45q87 -44 145 -119q59 -77 71 -166h16q10 89 68 166q55 74 143 119t182 45q113 0 211 -61q95 -59 153 -163
q56 -100 56 -223q0 -150 -66 -271q-66 -122 -161 -212q-97 -92 -250 -213q-136 -106 -218 -185q-81 -78 -120 -163h-16z" />
    <glyph glyph-name="uni2776" unicode="&#x2776;" 
d="M484 -132q-223 125 -354 343q-130 217 -130 479q0 264 130 481q131 219 354 342q226 125 495 125q271 0 497 -125q224 -124 353 -342q129 -217 129 -481t-130 -481q-131 -219 -354 -342q-226 -125 -495 -125q-270 0 -495 126zM911 246h222v893h-175q-15 -77 -81 -115
q-68 -39 -187 -39v-194h17q80 0 122 23q44 24 74 77h8v-645z" />
    <glyph glyph-name="uni2777" unicode="&#x2777;" 
d="M484 -132q-223 125 -354 343q-130 217 -130 479q0 264 130 481q131 219 354 342q226 125 495 125q271 0 497 -125q224 -124 353 -342q129 -217 129 -481t-130 -481q-131 -219 -354 -342q-226 -125 -495 -125q-270 0 -495 126zM623 248h723v186h-224q-121 0 -215 -8l-4 8
l47 31q167 108 232 158q78 60 124 128t46 154q0 138 -97 215q-95 76 -247 76q-168 0 -269 -81q-99 -80 -104 -232h215q1 69 43 104q41 35 106 35q58 0 94 -30q35 -29 35 -89q0 -59 -39 -110q-43 -56 -112 -109q-72 -56 -225 -162q-8 -6 -129 -90v-184z" />
    <glyph glyph-name="uni2778" unicode="&#x2778;" 
d="M484 -132q-223 125 -354 343q-130 217 -130 479q0 264 130 481q131 219 354 342q226 125 495 125q271 0 497 -125q224 -124 353 -342q129 -217 129 -481t-130 -481q-131 -219 -354 -342q-226 -125 -495 -125q-270 0 -495 126zM1263 283q101 77 101 215q0 96 -64 157
t-163 68v6q93 7 148 58q54 49 54 131q0 119 -94 186t-248 67q-158 0 -266 -69q-109 -69 -110 -219h219q1 61 41 90q38 28 106 28q63 0 100 -28t37 -80q0 -111 -133 -111h-82v-151h76q75 0 112 -34q38 -35 38 -97q0 -58 -39 -93q-38 -34 -107 -34q-180 0 -180 162h-215
q1 -168 113 -249q111 -81 280 -81q174 0 276 78z" />
    <glyph glyph-name="uni2779" unicode="&#x2779;" 
d="M484 -132q-223 125 -354 343q-130 217 -130 479q0 264 130 481q131 219 354 342q226 125 495 125q271 0 497 -125q224 -124 353 -342q129 -217 129 -481t-130 -481q-131 -219 -354 -342q-226 -125 -495 -125q-270 0 -495 126zM997 446v-198h226v198h125v172h-125v556
h-244l-430 -515v-213h448zM831 745q60 71 106 134q37 51 60 100h9v-361h-279z" />
    <glyph glyph-name="uni277A" unicode="&#x277a;" 
d="M484 -132q-223 125 -354 343q-130 217 -130 479q0 264 130 481q131 219 354 342q226 125 495 125q271 0 497 -125q224 -124 353 -342q129 -217 129 -481t-130 -481q-131 -219 -354 -342q-226 -125 -495 -125q-270 0 -495 126zM1185 236q83 40 132 117q49 76 49 179
q0 139 -86 228q-85 88 -223 88q-73 0 -124 -31q-50 -30 -71 -82l-8 4l47 240h399v174h-573l-90 -512l203 -45q22 52 59 74q38 22 98 22q70 0 113 -46t43 -120q0 -78 -41 -122t-115 -44q-148 0 -163 125h-213q7 -141 114 -216q105 -74 269 -74q97 0 181 41z" />
    <glyph glyph-name="uni277B" unicode="&#x277b;" 
d="M484 -132q-223 125 -354 343q-130 217 -130 479q0 264 130 481q131 219 354 342q226 125 495 125q271 0 497 -125q224 -124 353 -342q129 -217 129 -481t-130 -481q-131 -219 -354 -342q-226 -125 -495 -125q-270 0 -495 126zM1249 292q107 86 107 240q0 94 -42 165
q-43 72 -113 109q-71 38 -157 38q-100 0 -158 -41q-56 -40 -73 -107h-10q0 160 44 237t144 77q63 0 98 -24q34 -23 46 -71h206q-21 133 -119 195q-101 64 -231 64q-192 0 -294 -134q-101 -132 -101 -368q0 -224 101 -344q102 -121 292 -121q154 0 260 85zM872 420
q-43 43 -43 104q0 70 44 114t116 44t114 -44t42 -114q0 -62 -41 -106q-40 -43 -115 -43q-73 1 -117 45z" />
    <glyph glyph-name="uni277C" unicode="&#x277c;" 
d="M484 -132q-223 125 -354 343q-130 217 -130 479q0 264 130 481q131 219 354 342q226 125 495 125q271 0 497 -125q224 -124 353 -342q129 -217 129 -481t-130 -481q-131 -219 -354 -342q-226 -125 -495 -125q-270 0 -495 126zM1024 205q4 180 33 306q28 126 91 227
q63 102 169 208v187h-676v-172h535l2 -9q-176 -108 -280 -301q-106 -196 -110 -446h236z" />
    <glyph glyph-name="uni277D" unicode="&#x277d;" 
d="M484 -132q-223 125 -354 343q-130 217 -130 479q0 264 130 481q131 219 354 342q226 125 495 125q271 0 497 -125q224 -124 353 -342q129 -217 129 -481t-130 -481q-131 -219 -354 -342q-226 -125 -495 -125q-270 0 -495 126zM1275 273q103 69 103 204q0 91 -53 155
q-52 62 -141 79v12q63 10 109 67q46 56 46 134q0 114 -93 183t-251 69t-254 -69t-96 -183q0 -80 44 -136q43 -54 110 -65v-12q-91 -17 -143 -78t-52 -156q0 -137 104 -205q103 -67 287 -67q178 0 280 68zM884 810q-40 34 -40 91q0 56 41 86q42 31 108 31q67 0 107 -32
q39 -32 39 -89q0 -55 -38 -88q-37 -33 -106 -33q-71 0 -111 34zM870 407q-45 35 -45 97q0 64 46 98q47 35 124 35q71 0 118 -35q46 -34 46 -98q0 -62 -43 -96q-44 -35 -121 -35q-81 0 -125 34z" />
    <glyph glyph-name="uni277E" unicode="&#x277e;" 
d="M1474 1512q223 -125 354 -343q130 -217 130 -479q0 -264 -130 -481q-131 -219 -354 -342q-226 -125 -495 -125q-271 0 -497 125q-224 124 -353 342q-129 217 -129 481t130 481q131 219 354 342q226 125 495 125q270 0 495 -126zM784 1138q-85 -36 -134 -108
q-50 -73 -50 -172q0 -145 89 -232t222 -87q102 0 159 42q56 41 71 105h12q-1 -158 -46 -236q-44 -77 -142 -77q-122 0 -144 94h-207q18 -132 119 -195t232 -63q191 0 293 133q102 134 102 369q0 223 -102 343t-291 120q-99 0 -183 -36zM1083 964q43 -42 43 -106
q0 -69 -44 -115q-44 -45 -115 -45t-115 45q-43 44 -43 115q0 64 42 106t116 42q73 0 116 -42z" />
    <glyph glyph-name="uni2E18" unicode="&#x2e18;" horiz-adv-x="1110" 
d="M700 1193q54 -54 54 -132q0 -76 -54 -130q-52 -52 -133 -52t-133 52q-53 53 -53 130q0 79 53 132q52 52 133 52t133 -52zM461 373q-22 -45 -64 -90q-45 -55 -45 -127q0 -80 51 -123q50 -43 144 -43q119 0 171 56q52 57 54 192h295q-2 -494 -526 -494q-223 0 -363 99
q-139 99 -139 284q0 103 53 191q52 85 158 163q84 61 116 93q34 34 46 74q13 42 14 114h281q0 -122 -9 -230l-57 -423h-154l-16 262z" />
    <glyph glyph-name="uniE000" unicode="&#xe000;" horiz-adv-x="1691" 
d="M397 0q-51 161 -114 230q-66 73 -189 77v137q131 -5 194 -48q61 -42 89 -124h6v1297h1280v-131h-1153v-1166h6q27 78 90 123q62 44 195 49v-137q-126 -5 -189 -75q-64 -72 -116 -232h-99z" />
    <glyph glyph-name="uniF8FF" unicode="&#xf8ff;" horiz-adv-x="1495" 
d="M365 -49q78 -4 141 14q61 18 96 62q38 45 45 102q-52 -49 -117 -75q-68 -27 -141 -27q-91 0 -173 47q-80 46 -129 127q-48 79 -48 172q0 113 61 202q63 92 162 138q148 70 227 196q36 64 43 129l-221 2v138h131q78 0 121 42t43 119v138l668 112v-411l149 2v-148l-278 2
v-131q0 -76 11 -109q12 -36 52 -57q35 -18 35 -61q0 -37 -19 -55q-21 -19 -48 -19q-19 0 -37 8l-86 45q11 -68 34 -116q24 -49 68 -93q-39 -10 -74 -10q-33 0 -77 10q-76 17 -148 76q11 -33 26 -62q13 -26 44 -54q63 -52 151 -52q22 0 40 3t22 3v-233q-120 2 -271 2
q1 -44 25 -74q29 -38 90 -59q60 -21 133 -21q36 0 82 7q-209 -113 -446 -113q-202 0 -387 82zM986 837q20 20 20 46q0 28 -20 48q-19 19 -48 19q-27 0 -45 -19q-19 -21 -19 -48q0 -25 19 -46q18 -20 45 -20q28 0 48 20z" />
    <glyph glyph-name="u1F345" unicode="&#x1f345;" horiz-adv-x="1781" 
d="M464 -16q-194 113 -309 310q-114 195 -114 427q0 231 114 426q113 193 309 308q195 114 427 114t427 -114q196 -115 309 -308q114 -195 114 -426q0 -230 -115 -427t-309 -310q-197 -115 -426 -115q-230 0 -427 115zM895 649h12l105 -319q24 -88 104 -88q61 0 114 49
q54 50 54 108q0 55 -51 93l-264 210l4 13l311 -27q10 -2 23 -2q51 0 75 33q25 34 25 82q0 66 -38 127q-37 59 -93 59q-36 0 -66 -24l-258 -189l-12 10l111 287q10 21 10 49q0 53 -48 83t-112 30q-62 0 -109 -29t-47 -82q0 -27 11 -51l106 -287l-12 -10l-256 187
q-35 24 -66 24q-55 0 -94 -58q-39 -59 -39 -126q0 -53 31 -89q29 -34 92 -26l311 27l5 -11l-263 -213q-53 -41 -53 -94q0 -57 53 -105t113 -48q80 0 104 88z" />
    <glyph glyph-name="K.ss01" horiz-adv-x="1460" 
d="M111 0v1434h315l-10 -674l14 -2q76 118 318 372l303 304h389l-580 -572l592 -862h-373l-440 647l-213 -207v-440h-315z" />
    <glyph glyph-name="uni0136.ss01" horiz-adv-x="1460" 
d="M111 0v1434h315l-10 -674l14 -2q76 118 318 372l303 304h389l-580 -572l592 -862h-373l-440 647l-213 -207v-440h-315zM715 -553h-195l96 379h265z" />
    <glyph glyph-name="R.ss01" horiz-adv-x="1402" 
d="M954 700l420 -700h-354l-305 514h-285v-514h-315v1434h727q211 0 342 -96q129 -94 129 -255t-96 -262q-95 -100 -259 -106zM752 737q114 0 184 64t70 170q0 96 -70 157q-69 60 -184 60h-322v-451h322z" />
    <glyph glyph-name="Racute.ss01" horiz-adv-x="1402" 
d="M954 700l420 -700h-354l-305 514h-285v-514h-315v1434h727q211 0 342 -96q129 -94 129 -255t-96 -262q-95 -100 -259 -106zM752 737q114 0 184 64t70 170q0 96 -70 157q-69 60 -184 60h-322v-451h322zM1182 1815l-639 -246l-66 164l625 268z" />
    <glyph glyph-name="Rcaron.ss01" horiz-adv-x="1402" 
d="M954 700l420 -700h-354l-305 514h-285v-514h-315v1434h727q211 0 342 -96q129 -94 129 -255t-96 -262q-95 -100 -259 -106zM752 737q114 0 184 64t70 170q0 96 -70 157q-69 60 -184 60h-322v-451h322zM313 1870h244l57 -62q59 -59 82 -92h13q25 35 82 94l57 60h242
l-244 -295h-289z" />
    <glyph glyph-name="uni0156.ss01" horiz-adv-x="1402" 
d="M954 700l420 -700h-354l-305 514h-285v-514h-315v1434h727q211 0 342 -96q129 -94 129 -255t-96 -262q-95 -100 -259 -106zM752 737q114 0 184 64t70 170q0 96 -70 157q-69 60 -184 60h-322v-451h322zM690 -553h-194l96 379h264z" />
    <glyph glyph-name="uni1E9E.ss01" horiz-adv-x="1613" 
d="M94 0v1434h1383v-381l-510 -183q-95 -29 -95 -102q0 -49 36 -79q35 -29 118 -46l244 -53q158 -33 231 -105q74 -72 74 -198q0 -164 -134 -242q-133 -78 -376 -78q-539 0 -539 365h314q0 -66 59 -103q58 -36 168 -36q93 0 143 24t50 72q0 73 -107 94l-231 47
q-179 35 -266 117q-87 83 -87 213q0 127 77 201q75 72 208 118l244 88v15h-690v-1182h-314z" />
    <glyph glyph-name="R.ss02" horiz-adv-x="1425" 
d="M1280 408q11 -223 19 -289q9 -72 40 -119h-307q-32 39 -46 127q-13 82 -13 154q0 93 -22 145q-21 50 -72 69q-50 19 -154 19h-295v-514h-315v1434h729q136 0 241 -45q104 -45 163 -126q59 -82 59 -188q0 -155 -103 -255q-102 -99 -268 -105v-15q327 6 342 -249zM752 737
q112 0 180 63q67 63 67 165q0 100 -67 161q-68 62 -180 62h-322v-451h322z" />
    <glyph glyph-name="Racute.ss02" horiz-adv-x="1425" 
d="M1280 408q11 -223 19 -289q9 -72 40 -119h-307q-32 39 -46 127q-13 82 -13 154q0 93 -22 145q-21 50 -72 69q-50 19 -154 19h-295v-514h-315v1434h729q136 0 241 -45q104 -45 163 -126q59 -82 59 -188q0 -155 -103 -255q-102 -99 -268 -105v-15q327 6 342 -249zM752 737
q112 0 180 63q67 63 67 165q0 100 -67 161q-68 62 -180 62h-322v-451h322zM1169 1815l-639 -246l-65 164l625 268z" />
    <glyph glyph-name="Rcaron.ss02" horiz-adv-x="1425" 
d="M1280 408q11 -223 19 -289q9 -72 40 -119h-307q-32 39 -46 127q-13 82 -13 154q0 93 -22 145q-21 50 -72 69q-50 19 -154 19h-295v-514h-315v1434h729q136 0 241 -45q104 -45 163 -126q59 -82 59 -188q0 -155 -103 -255q-102 -99 -268 -105v-15q327 6 342 -249zM752 737
q112 0 180 63q67 63 67 165q0 100 -67 161q-68 62 -180 62h-322v-451h322zM301 1870h244l57 -62q59 -59 82 -92h12q25 35 82 94l58 60h241l-243 -295h-289z" />
    <glyph glyph-name="uni0156.ss02" horiz-adv-x="1425" 
d="M1280 408q11 -223 19 -289q9 -72 40 -119h-307q-32 39 -46 127q-13 82 -13 154q0 93 -22 145q-21 50 -72 69q-50 19 -154 19h-295v-514h-315v1434h729q136 0 241 -45q104 -45 163 -126q59 -82 59 -188q0 -155 -103 -255q-102 -99 -268 -105v-15q327 6 342 -249zM752 737
q112 0 180 63q67 63 67 165q0 100 -67 161q-68 62 -180 62h-322v-451h322zM705 -553h-195l96 379h264z" />
    <glyph glyph-name="i.loclTRK" horiz-adv-x="491" 
d="M98 0v1057h291v-1057h-291zM122 1247q-50 50 -50 119q0 70 51 120q52 50 121 50q72 0 121 -49t49 -121q0 -70 -49 -119t-121 -49q-73 0 -122 49z" />
    <glyph glyph-name="a.ss01" horiz-adv-x="1208" 
d="M121 455q77 71 239 98l463 76v20q0 111 -54 166t-173 55q-233 0 -254 -233h-289q6 126 68 229t183 163q124 61 298 61q247 0 378 -119q130 -118 130 -324v-647h-279l-8 330h-10q-16 -167 -128 -265t-282 -98q-159 0 -260 77q-100 76 -100 210q0 129 78 201zM382 191
q40 -33 120 -33q87 0 160 41q69 39 114 110q42 67 47 156l-301 -49q-99 -16 -140 -46q-42 -30 -42 -87t42 -92z" />
    <glyph glyph-name="aacute.ss01" horiz-adv-x="1208" 
d="M121 455q77 71 239 98l463 76v20q0 111 -54 166t-173 55q-233 0 -254 -233h-289q6 126 68 229t183 163q124 61 298 61q247 0 378 -119q130 -118 130 -324v-647h-279l-8 330h-10q-16 -167 -128 -265t-282 -98q-159 0 -260 77q-100 76 -100 210q0 129 78 201zM382 191
q40 -33 120 -33q87 0 160 41q69 39 114 110q42 67 47 156l-301 -49q-99 -16 -140 -46q-42 -30 -42 -87t42 -92zM1098 1438l-639 -246l-66 164l625 268z" />
    <glyph glyph-name="abreve.ss01" horiz-adv-x="1208" 
d="M121 455q77 71 239 98l463 76v20q0 111 -54 166t-173 55q-233 0 -254 -233h-289q6 126 68 229t183 163q124 61 298 61q247 0 378 -119q130 -118 130 -324v-647h-279l-8 330h-10q-16 -167 -128 -265t-282 -98q-159 0 -260 77q-100 76 -100 210q0 129 78 201zM382 191
q40 -33 120 -33q87 0 160 41q69 39 114 110q42 67 47 156l-301 -49q-99 -16 -140 -46q-42 -30 -42 -87t42 -92zM380 1279q-96 82 -118 224h215q7 -61 45 -94t96 -33q60 0 96 33t46 94h215q-24 -145 -119 -225t-238 -80t-238 81z" />
    <glyph glyph-name="acircumflex.ss01" horiz-adv-x="1208" 
d="M121 455q77 71 239 98l463 76v20q0 111 -54 166t-173 55q-233 0 -254 -233h-289q6 126 68 229t183 163q124 61 298 61q247 0 378 -119q130 -118 130 -324v-647h-279l-8 330h-10q-16 -167 -128 -265t-282 -98q-159 0 -260 77q-100 76 -100 210q0 129 78 201zM382 191
q40 -33 120 -33q87 0 160 41q69 39 114 110q42 67 47 156l-301 -49q-99 -16 -140 -46q-42 -30 -42 -87t42 -92zM227 1198l244 295h289l244 -295h-242l-57 59q-55 56 -82 95h-13q-23 -33 -82 -92l-57 -62h-244z" />
    <glyph glyph-name="adieresis.ss01" horiz-adv-x="1208" 
d="M121 455q77 71 239 98l463 76v20q0 111 -54 166t-173 55q-233 0 -254 -233h-289q6 126 68 229t183 163q124 61 298 61q247 0 378 -119q130 -118 130 -324v-647h-279l-8 330h-10q-16 -167 -128 -265t-282 -98q-159 0 -260 77q-100 76 -100 210q0 129 78 201zM382 191
q40 -33 120 -33q87 0 160 41q69 39 114 110q42 67 47 156l-301 -49q-99 -16 -140 -46q-42 -30 -42 -87t42 -92zM719 1242q-43 43 -43 104q0 62 43 105q44 44 104 44q64 0 107 -43t43 -106q0 -62 -43 -105t-107 -43q-60 0 -104 44zM306 1241q-44 44 -44 105q0 59 44 103
t106 44t106 -42q43 -42 43 -105q0 -64 -43 -106q-44 -42 -106 -42q-63 0 -106 43z" />
    <glyph glyph-name="agrave.ss01" horiz-adv-x="1208" 
d="M121 455q77 71 239 98l463 76v20q0 111 -54 166t-173 55q-233 0 -254 -233h-289q6 126 68 229t183 163q124 61 298 61q247 0 378 -119q130 -118 130 -324v-647h-279l-8 330h-10q-16 -167 -128 -265t-282 -98q-159 0 -260 77q-100 76 -100 210q0 129 78 201zM382 191
q40 -33 120 -33q87 0 160 41q69 39 114 110q42 67 47 156l-301 -49q-99 -16 -140 -46q-42 -30 -42 -87t42 -92zM842 1356l-66 -164l-639 246l78 186z" />
    <glyph glyph-name="amacron.ss01" horiz-adv-x="1208" 
d="M121 455q77 71 239 98l463 76v20q0 111 -54 166t-173 55q-233 0 -254 -233h-289q6 126 68 229t183 163q124 61 298 61q247 0 378 -119q130 -118 130 -324v-647h-279l-8 330h-10q-16 -167 -128 -265t-282 -98q-159 0 -260 77q-100 76 -100 210q0 129 78 201zM382 191
q40 -33 120 -33q87 0 160 41q69 39 114 110q42 67 47 156l-301 -49q-99 -16 -140 -46q-42 -30 -42 -87t42 -92zM965 1198h-697v197h697v-197z" />
    <glyph glyph-name="aogonek.ss01" horiz-adv-x="1208" 
d="M1110 0q-201 -91 -201 -182q0 -76 115 -76q35 0 86 4v-162q-20 -2 -56 -6q-33 -4 -67 -4q-140 0 -220 41q-79 40 -79 137q0 88 86 154q84 65 242 86v8h-185l-8 330h-10q-16 -167 -128 -265t-282 -98q-159 0 -260 77q-100 76 -100 210q0 129 78 201q77 71 239 98l463 76
v20q0 111 -54 166t-173 55q-233 0 -254 -233h-289q6 126 68 229t183 163q124 61 298 61q247 0 378 -119q130 -118 130 -324v-647zM662 199q69 39 114 110q42 67 47 156l-301 -49q-99 -16 -140 -46q-42 -30 -42 -87t42 -92q40 -33 120 -33q87 0 160 41z" />
    <glyph glyph-name="aring.ss01" horiz-adv-x="1208" 
d="M121 455q77 71 239 98l463 76v20q0 111 -54 166t-173 55q-233 0 -254 -233h-289q6 126 68 229t183 163q124 61 298 61q247 0 378 -119q130 -118 130 -324v-647h-279l-8 330h-10q-16 -167 -128 -265t-282 -98q-159 0 -260 77q-100 76 -100 210q0 129 78 201zM382 191
q40 -33 120 -33q87 0 160 41q69 39 114 110q42 67 47 156l-301 -49q-99 -16 -140 -46q-42 -30 -42 -87t42 -92zM395 1272q-84 74 -84 194q0 122 84 195q85 74 221 74q137 0 222 -74q84 -73 84 -195q0 -120 -84 -194q-85 -74 -222 -74q-136 0 -221 74zM708 1394q33 26 33 72
q0 47 -33 73q-36 28 -92 28q-53 0 -89 -28q-33 -26 -33 -73q0 -46 33 -72q36 -28 89 -28q56 0 92 28z" />
    <glyph glyph-name="atilde.ss01" horiz-adv-x="1208" 
d="M121 455q77 71 239 98l463 76v20q0 111 -54 166t-173 55q-233 0 -254 -233h-289q6 126 68 229t183 163q124 61 298 61q247 0 378 -119q130 -118 130 -324v-647h-279l-8 330h-10q-16 -167 -128 -265t-282 -98q-159 0 -260 77q-100 76 -100 210q0 129 78 201zM382 191
q40 -33 120 -33q87 0 160 41q69 39 114 110q42 67 47 156l-301 -49q-99 -16 -140 -46q-42 -30 -42 -87t42 -92zM231 1198q0 133 54 206q53 71 153 71q83 0 185 -45q78 -35 118 -35q30 0 45 18q16 19 17 62h186q0 -134 -53 -204q-52 -69 -156 -69q-82 0 -184 41
q-85 35 -119 35q-57 0 -59 -80h-187z" />
    <glyph glyph-name="ae.ss01" horiz-adv-x="1976" 
d="M143 44q-100 76 -100 210q0 130 78 203q79 74 239 98l463 74v20q0 111 -54 166t-173 55q-117 0 -177 -61q-61 -62 -71 -172h-289q6 126 68 229q63 104 182 163q124 61 293 61q132 0 227 -40q96 -40 162 -126h10q61 82 163 124t220 42q164 0 285 -72q120 -71 184 -194
t64 -271v-84h-807q1 -134 76 -209q74 -74 198 -74q111 0 182 51q69 49 87 130h256q-17 -131 -94 -220q-78 -90 -189 -135t-227 -45q-168 0 -296 64t-196 184q-33 56 -51 127h-10q-11 -115 -72 -200t-159 -130q-97 -45 -212 -45q-159 0 -260 77zM1153 633q161 0 277 -26
q113 -25 196 -99l12 6q6 187 -68 271q-75 85 -198 85q-109 0 -180 -62q-73 -63 -80 -175h41zM665 201q74 44 113 113q40 70 45 151l-313 -49q-170 -27 -170 -131q0 -59 41 -94q39 -33 119 -33q94 0 165 43z" />
    <glyph glyph-name="aeacute.ss01" horiz-adv-x="1976" 
d="M143 44q-100 76 -100 210q0 130 78 203q79 74 239 98l463 74v20q0 111 -54 166t-173 55q-117 0 -177 -61q-61 -62 -71 -172h-289q6 126 68 229q63 104 182 163q124 61 293 61q132 0 227 -40q96 -40 162 -126h10q61 82 163 124t220 42q164 0 285 -72q120 -71 184 -194
t64 -271v-84h-807q1 -134 76 -209q74 -74 198 -74q111 0 182 51q69 49 87 130h256q-17 -131 -94 -220q-78 -90 -189 -135t-227 -45q-168 0 -296 64t-196 184q-33 56 -51 127h-10q-11 -115 -72 -200t-159 -130q-97 -45 -212 -45q-159 0 -260 77zM1153 633q161 0 277 -26
q113 -25 196 -99l12 6q6 187 -68 271q-75 85 -198 85q-109 0 -180 -62q-73 -63 -80 -175h41zM665 201q74 44 113 113q40 70 45 151l-313 -49q-170 -27 -170 -131q0 -59 41 -94q39 -33 119 -33q94 0 165 43zM1483 1438l-639 -246l-66 164l625 268z" />
    <glyph glyph-name="uni01E3.ss01" horiz-adv-x="1976" 
d="M143 44q-100 76 -100 210q0 130 78 203q79 74 239 98l463 74v20q0 111 -54 166t-173 55q-117 0 -177 -61q-61 -62 -71 -172h-289q6 126 68 229q63 104 182 163q124 61 293 61q132 0 227 -40q96 -40 162 -126h10q61 82 163 124t220 42q164 0 285 -72q120 -71 184 -194
t64 -271v-84h-807q1 -134 76 -209q74 -74 198 -74q111 0 182 51q69 49 87 130h256q-17 -131 -94 -220q-78 -90 -189 -135t-227 -45q-168 0 -296 64t-196 184q-33 56 -51 127h-10q-11 -115 -72 -200t-159 -130q-97 -45 -212 -45q-159 0 -260 77zM1153 633q161 0 277 -26
q113 -25 196 -99l12 6q6 187 -68 271q-75 85 -198 85q-109 0 -180 -62q-73 -63 -80 -175h41zM665 201q74 44 113 113q40 70 45 151l-313 -49q-170 -27 -170 -131q0 -59 41 -94q39 -33 119 -33q94 0 165 43zM1350 1198h-697v197h697v-197z" />
    <glyph glyph-name="e.ss01" horiz-adv-x="1198" 
d="M1139 469h-807q1 -132 76 -208q73 -75 196 -75q110 0 181 51q67 48 89 130h254q-17 -131 -94 -220q-79 -91 -188 -135q-111 -45 -228 -45q-260 0 -413 148q-152 147 -152 417q0 165 68 293q67 127 190 196t289 69q164 0 287 -72q122 -71 187 -194q65 -122 65 -271v-84z
M858 514q8 187 -66 271q-75 85 -198 85q-109 0 -180 -61q-72 -62 -80 -176h59q167 0 271 -29q101 -28 184 -96z" />
    <glyph glyph-name="eacute.ss01" horiz-adv-x="1198" 
d="M1139 469h-807q1 -132 76 -208q73 -75 196 -75q110 0 181 51q67 48 89 130h254q-17 -131 -94 -220q-79 -91 -188 -135q-111 -45 -228 -45q-260 0 -413 148q-152 147 -152 417q0 165 68 293q67 127 190 196t289 69q164 0 287 -72q122 -71 187 -194q65 -122 65 -271v-84z
M858 514q8 187 -66 271q-75 85 -198 85q-109 0 -180 -61q-72 -62 -80 -176h59q167 0 271 -29q101 -28 184 -96zM1085 1438l-639 -246l-65 164l625 268z" />
    <glyph glyph-name="ebreve.ss01" horiz-adv-x="1198" 
d="M1139 469h-807q1 -132 76 -208q73 -75 196 -75q110 0 181 51q67 48 89 130h254q-17 -131 -94 -220q-79 -91 -188 -135q-111 -45 -228 -45q-260 0 -413 148q-152 147 -152 417q0 165 68 293q67 127 190 196t289 69q164 0 287 -72q122 -71 187 -194q65 -122 65 -271v-84z
M858 514q8 187 -66 271q-75 85 -198 85q-109 0 -180 -61q-72 -62 -80 -176h59q167 0 271 -29q101 -28 184 -96zM368 1279q-96 82 -118 224h215q7 -61 45 -94t96 -33q59 0 95 33q37 34 47 94h215q-24 -145 -119 -225t-238 -80q-144 0 -238 81z" />
    <glyph glyph-name="ecaron.ss01" horiz-adv-x="1198" 
d="M1139 469h-807q1 -132 76 -208q73 -75 196 -75q110 0 181 51q67 48 89 130h254q-17 -131 -94 -220q-79 -91 -188 -135q-111 -45 -228 -45q-260 0 -413 148q-152 147 -152 417q0 165 68 293q67 127 190 196t289 69q164 0 287 -72q122 -71 187 -194q65 -122 65 -271v-84z
M858 514q8 187 -66 271q-75 85 -198 85q-109 0 -180 -61q-72 -62 -80 -176h59q167 0 271 -29q101 -28 184 -96zM217 1493h244l57 -61q57 -57 82 -93h12q27 39 82 95l58 59h241l-243 -295h-289z" />
    <glyph glyph-name="ecircumflex.ss01" horiz-adv-x="1198" 
d="M1139 469h-807q1 -132 76 -208q73 -75 196 -75q110 0 181 51q67 48 89 130h254q-17 -131 -94 -220q-79 -91 -188 -135q-111 -45 -228 -45q-260 0 -413 148q-152 147 -152 417q0 165 68 293q67 127 190 196t289 69q164 0 287 -72q122 -71 187 -194q65 -122 65 -271v-84z
M858 514q8 187 -66 271q-75 85 -198 85q-109 0 -180 -61q-72 -62 -80 -176h59q167 0 271 -29q101 -28 184 -96zM217 1198l244 295h289l243 -295h-241l-58 59q-55 56 -82 95h-12q-23 -33 -82 -92l-57 -62h-244z" />
    <glyph glyph-name="edieresis.ss01" horiz-adv-x="1198" 
d="M1139 469h-807q1 -132 76 -208q73 -75 196 -75q110 0 181 51q67 48 89 130h254q-17 -131 -94 -220q-79 -91 -188 -135q-111 -45 -228 -45q-260 0 -413 148q-152 147 -152 417q0 165 68 293q67 127 190 196t289 69q164 0 287 -72q122 -71 187 -194q65 -122 65 -271v-84z
M858 514q8 187 -66 271q-75 85 -198 85q-109 0 -180 -61q-72 -62 -80 -176h59q167 0 271 -29q101 -28 184 -96zM707 1242q-43 43 -43 104q0 62 43 105q44 44 104 44q63 0 106 -43q44 -44 44 -106q0 -61 -44 -105q-43 -43 -106 -43q-60 0 -104 44zM294 1241q-44 44 -44 105
q0 59 44 103t105 44q63 0 107 -42q43 -42 43 -105q0 -64 -43 -106q-44 -42 -107 -42q-62 0 -105 43z" />
    <glyph glyph-name="edotaccent.ss01" horiz-adv-x="1198" 
d="M1139 469h-807q1 -132 76 -208q73 -75 196 -75q110 0 181 51q67 48 89 130h254q-17 -131 -94 -220q-79 -91 -188 -135q-111 -45 -228 -45q-260 0 -413 148q-152 147 -152 417q0 165 68 293q67 127 190 196t289 69q164 0 287 -72q122 -71 187 -194q65 -122 65 -271v-84z
M858 514q8 187 -66 271q-75 85 -198 85q-109 0 -180 -61q-72 -62 -80 -176h59q167 0 271 -29q101 -28 184 -96zM484 1247q-50 50 -50 119q0 70 51 120q52 50 121 50q72 0 121 -49t49 -121q0 -70 -49 -119t-121 -49q-73 0 -122 49z" />
    <glyph glyph-name="egrave.ss01" horiz-adv-x="1198" 
d="M1139 469h-807q1 -132 76 -208q73 -75 196 -75q110 0 181 51q67 48 89 130h254q-17 -131 -94 -220q-79 -91 -188 -135q-111 -45 -228 -45q-260 0 -413 148q-152 147 -152 417q0 165 68 293q67 127 190 196t289 69q164 0 287 -72q122 -71 187 -194q65 -122 65 -271v-84z
M858 514q8 187 -66 271q-75 85 -198 85q-109 0 -180 -61q-72 -62 -80 -176h59q167 0 271 -29q101 -28 184 -96zM831 1356l-65 -164l-639 246l78 186z" />
    <glyph glyph-name="emacron.ss01" horiz-adv-x="1198" 
d="M1139 469h-807q1 -132 76 -208q73 -75 196 -75q110 0 181 51q67 48 89 130h254q-17 -131 -94 -220q-79 -91 -188 -135q-111 -45 -228 -45q-260 0 -413 148q-152 147 -152 417q0 165 68 293q67 127 190 196t289 69q164 0 287 -72q122 -71 187 -194q65 -122 65 -271v-84z
M858 514q8 187 -66 271q-75 85 -198 85q-109 0 -180 -61q-72 -62 -80 -176h59q167 0 271 -29q101 -28 184 -96zM952 1198h-696v197h696v-197z" />
    <glyph glyph-name="eogonek.ss01" horiz-adv-x="1198" 
d="M1139 469h-807q1 -132 76 -208q73 -75 196 -75q110 0 181 51q67 48 89 130h254q-18 -138 -104 -231q-85 -92 -213 -136q-107 -46 -155 -95q-48 -48 -48 -89q0 -74 117 -74q37 0 84 4v-162q-50 -10 -129 -10q-134 0 -214 39q-79 39 -79 133q0 80 76 140q78 61 217 73v12
q-36 -4 -62 -4q-260 0 -413 148q-152 147 -152 417q0 165 68 293q67 127 190 196t289 69q164 0 287 -72q122 -71 187 -194q65 -122 65 -271v-84zM858 514q8 187 -66 271q-75 85 -198 85q-109 0 -180 -61q-72 -62 -80 -176h59q167 0 271 -29q101 -28 184 -96z" />
    <glyph glyph-name="j.ss01" horiz-adv-x="540" 
d="M148 1247q-50 50 -50 119q0 70 50 120t120 50q73 0 122 -49q50 -50 50 -121q0 -69 -50 -119q-49 -49 -122 -49q-71 0 -120 49zM416 -377h-293v1434h293v-1434z" />
    <glyph glyph-name="k.ss01" horiz-adv-x="1177" 
d="M98 0v1434h285v-496q0 -174 -6 -350l10 -4q38 58 98 124q47 53 166 171l185 178h338l-435 -422l435 -635h-330l-299 444l-162 -159v-285h-285z" />
    <glyph glyph-name="uni0137.ss01" horiz-adv-x="1177" 
d="M98 0v1434h285v-496q0 -174 -6 -350l10 -4q38 58 98 124q47 53 166 171l185 178h338l-435 -422l435 -635h-330l-299 444l-162 -159v-285h-285zM555 -553h-195l97 379h264z" />
    <glyph glyph-name="t.ss01" horiz-adv-x="825" 
d="M475 1057h305v-180h-299v-877h-291v877h-165v180h165v276h277z" />
    <glyph glyph-name="tbar.ss01" horiz-adv-x="827" 
d="M481 621h301v-119h-301v-502h-291v502h-165v119h165v256h-165v180h165v276h277l8 -276h305v-180h-299v-256z" />
    <glyph glyph-name="tcaron.ss01" horiz-adv-x="825" 
d="M475 1057h305v-180h-299v-877h-291v877h-165v180h165v276h277zM733 1135h-174l68 421h256z" />
    <glyph glyph-name="uni0163.ss01" horiz-adv-x="825" 
d="M475 1057h305v-180h-299v-877h-291v877h-165v180h165v276h277zM350 -100q93 0 151 -43t58 -111q0 -96 -79 -144q-80 -48 -224 -48q-65 0 -145 4v114q54 -2 120 -2q55 0 88 21t33 57q0 72 -119 72q-24 0 -53 -4v82q86 30 86 102h144q0 -30 -23 -55t-59 -35v-10h22z" />
    <glyph glyph-name="uni021B.ss01" horiz-adv-x="825" 
d="M475 1057h305v-180h-299v-877h-291v877h-165v180h165v276h277zM301 -553h-195l97 379h264z" />
    <glyph glyph-name="g.ss02" horiz-adv-x="1316" 
d="M913 1057h277v-944q0 -263 -138 -399q-137 -136 -403 -136q-250 0 -392 99q-143 99 -161 286l289 2q7 -84 73 -128q65 -44 181 -44q130 0 197 76t67 219v266h-10q-45 -162 -151 -246q-106 -83 -240 -83q-130 0 -232 66t-159 188q-58 124 -58 276q0 154 58 278
q57 122 159 188t232 66q136 0 240 -83q106 -85 151 -246h10zM827 311q76 83 76 213v64q0 130 -76 213q-77 84 -200 84q-127 0 -204 -90q-77 -91 -77 -240q0 -147 77 -238q77 -90 204 -90q123 0 200 84z" />
    <glyph glyph-name="gbreve.ss02" horiz-adv-x="1316" 
d="M913 1057h277v-944q0 -263 -138 -399q-137 -136 -403 -136q-250 0 -392 99q-143 99 -161 286l289 2q7 -84 73 -128q65 -44 181 -44q130 0 197 76t67 219v266h-10q-45 -162 -151 -246q-106 -83 -240 -83q-130 0 -232 66t-159 188q-58 124 -58 276q0 154 58 278
q57 122 159 188t232 66q136 0 240 -83q106 -85 151 -246h10zM827 311q76 83 76 213v64q0 130 -76 213q-77 84 -200 84q-127 0 -204 -90q-77 -91 -77 -240q0 -147 77 -238q77 -90 204 -90q123 0 200 84zM421 1279q-96 82 -118 224h215q7 -61 45 -94t96 -33q60 0 96 33t46 94
h215q-24 -145 -119 -225t-238 -80t-238 81z" />
    <glyph glyph-name="uni0123.ss02" horiz-adv-x="1316" 
d="M913 1057h277v-944q0 -263 -138 -399q-137 -136 -403 -136q-250 0 -392 99q-143 99 -161 286l289 2q7 -84 73 -128q65 -44 181 -44q130 0 197 76t67 219v266h-10q-45 -162 -151 -246q-106 -83 -240 -83q-130 0 -232 66t-159 188q-58 124 -58 276q0 154 58 278
q57 122 159 188t232 66q136 0 240 -83q106 -85 151 -246h10zM827 311q76 83 76 213v64q0 130 -76 213q-77 84 -200 84q-127 0 -204 -90q-77 -91 -77 -240q0 -147 77 -238q77 -90 204 -90q123 0 200 84zM748 1196h-195l96 379h264z" />
    <glyph glyph-name="gdotaccent.ss02" horiz-adv-x="1316" 
d="M913 1057h277v-944q0 -263 -138 -399q-137 -136 -403 -136q-250 0 -392 99q-143 99 -161 286l289 2q7 -84 73 -128q65 -44 181 -44q130 0 197 76t67 219v266h-10q-45 -162 -151 -246q-106 -83 -240 -83q-130 0 -232 66t-159 188q-58 124 -58 276q0 154 58 278
q57 122 159 188t232 66q136 0 240 -83q106 -85 151 -246h10zM827 311q76 83 76 213v64q0 130 -76 213q-77 84 -200 84q-127 0 -204 -90q-77 -91 -77 -240q0 -147 77 -238q77 -90 204 -90q123 0 200 84zM538 1247q-51 51 -51 119q0 70 52 120t120 50q72 0 121 -49t49 -121
q0 -70 -49 -119t-121 -49t-121 49z" />
    <glyph glyph-name="l.ss02" horiz-adv-x="653" 
d="M183 67q-85 82 -85 259v1108h291v-1090q0 -73 35 -102t108 -29q30 0 68 2v-225q-80 -6 -139 -6q-192 0 -278 83z" />
    <glyph glyph-name="lacute.ss02" horiz-adv-x="653" 
d="M183 67q-85 82 -85 259v1108h291v-1090q0 -73 35 -102t108 -29q30 0 68 2v-225q-80 -6 -139 -6q-192 0 -278 83zM723 1815l-639 -246l-66 164l625 268z" />
    <glyph glyph-name="lcaron.ss02" horiz-adv-x="653" 
d="M183 67q-85 82 -85 259v1108h291v-1090q0 -73 35 -102t108 -29q30 0 68 2v-225q-80 -6 -139 -6q-192 0 -278 83zM653 868h-161l67 566h256z" />
    <glyph glyph-name="uni013C.ss02" horiz-adv-x="653" 
d="M183 67q-85 82 -85 259v1108h291v-1090q0 -73 35 -102t108 -29q30 0 68 2v-225q-80 -6 -139 -6q-192 0 -278 83zM293 -553h-195l97 379h264z" />
    <glyph glyph-name="lslash.ss02" horiz-adv-x="796" 
d="M657 215v-225q-79 -6 -139 -6q-191 0 -277 83q-85 82 -85 259v249l-156 -79v133l156 80v725h290v-580l164 84v-133l-164 -84v-377q0 -73 35 -102t111 -29q27 0 65 2z" />
    <glyph glyph-name="oe.ss02" horiz-adv-x="2058" 
d="M337 36q-131 69 -207 197q-77 130 -77 299q0 165 77 293q76 127 207 196t288 69q121 0 235 -51q110 -49 182 -148h11q62 99 170 149t241 50q164 0 285 -72q120 -71 185 -194q65 -122 65 -271v-84h-807q1 -134 76 -209q74 -74 196 -74q113 0 183 52t88 129h254
q-16 -129 -94 -220q-77 -90 -187 -135q-111 -45 -227 -45q-296 0 -426 199h-13q-73 -100 -182 -150q-107 -49 -235 -49q-157 0 -288 69zM1264 633q150 0 260 -28q104 -26 184 -97l12 6q6 187 -68 271q-75 85 -198 85q-109 0 -180 -61q-72 -62 -80 -176h70zM825 276
q74 89 74 256q0 161 -74 249q-74 87 -200 87q-129 0 -203 -87q-74 -88 -74 -249q0 -167 74 -256q73 -88 203 -88q127 0 200 88z" />
    <glyph glyph-name="u.ss02" horiz-adv-x="1255" 
d="M237 95q-139 127 -139 370v592h293v-602q-6 -265 236 -265q116 0 178 65q61 63 59 200v602h293v-592q0 -247 -141 -372q-140 -124 -389 -124q-252 0 -390 126z" />
    <glyph glyph-name="uacute.ss02" horiz-adv-x="1255" 
d="M237 95q-139 127 -139 370v592h293v-602q-6 -265 236 -265q116 0 178 65q61 63 59 200v602h293v-592q0 -247 -141 -372q-140 -124 -389 -124q-252 0 -390 126zM1108 1438l-639 -246l-66 164l625 268z" />
    <glyph glyph-name="ucircumflex.ss02" horiz-adv-x="1255" 
d="M237 95q-139 127 -139 370v592h293v-602q-6 -265 236 -265q116 0 178 65q61 63 59 200v602h293v-592q0 -247 -141 -372q-140 -124 -389 -124q-252 0 -390 126zM240 1198l243 295h289l244 -295h-242l-57 59q-55 56 -82 95h-12q-23 -33 -82 -92l-58 -62h-243z" />
    <glyph glyph-name="udieresis.ss02" horiz-adv-x="1255" 
d="M237 95q-139 127 -139 370v592h293v-602q-6 -265 236 -265q116 0 178 65q61 63 59 200v602h293v-592q0 -247 -141 -372q-140 -124 -389 -124q-252 0 -390 126zM729 1242q-43 43 -43 104q0 62 43 105q44 44 105 44q63 0 106 -43t43 -106q0 -62 -43 -105t-106 -43
q-61 0 -105 44zM316 1241q-44 44 -44 105q0 59 44 103t106 44t106 -42q43 -42 43 -105q0 -64 -43 -106q-44 -42 -106 -42q-63 0 -106 43z" />
    <glyph glyph-name="ugrave.ss02" horiz-adv-x="1255" 
d="M237 95q-139 127 -139 370v592h293v-602q-6 -265 236 -265q116 0 178 65q61 63 59 200v602h293v-592q0 -247 -141 -372q-140 -124 -389 -124q-252 0 -390 126zM854 1356l-66 -164l-638 246l77 186z" />
    <glyph glyph-name="uhungarumlaut.ss02" horiz-adv-x="1255" 
d="M237 95q-139 127 -139 370v592h293v-602q-6 -265 236 -265q116 0 178 65q61 63 59 200v602h293v-592q0 -247 -141 -372q-140 -124 -389 -124q-252 0 -390 126zM735 1491l-258 -299l-145 96l203 340zM1126 1491l-258 -299l-145 96l203 340z" />
    <glyph glyph-name="umacron.ss02" horiz-adv-x="1255" 
d="M237 95q-139 127 -139 370v592h293v-602q-6 -265 236 -265q116 0 178 65q61 63 59 200v602h293v-592q0 -247 -141 -372q-140 -124 -389 -124q-252 0 -390 126zM975 1198h-696v197h696v-197z" />
    <glyph glyph-name="uogonek.ss02" horiz-adv-x="1255" 
d="M864 1057h293v-592q0 -186 -81 -303t-228 -162q-106 -46 -156 -95q-49 -48 -49 -89q0 -74 117 -74q37 0 84 4v-162q-50 -10 -129 -10q-134 0 -214 39q-79 39 -79 133q0 80 76 140q78 61 217 73v14q-51 -4 -88 -4q-252 0 -390 126q-139 127 -139 370v592h293v-602
q-6 -265 236 -265q116 0 178 65q61 63 59 200v602z" />
    <glyph glyph-name="f_b" horiz-adv-x="2058" 
d="M1788 1021q104 -70 160 -196q57 -127 57 -297q0 -168 -57 -296q-56 -126 -160 -196q-102 -69 -232 -69q-134 0 -240 83t-151 245h-10l-10 -295h-283v1221h-217q-72 0 -107 -32q-34 -31 -34 -99v-33h276v-180h-270v-877h-291v877h-194v180h194v33q0 360 391 360h545v-690
h10q45 164 151 247t240 83q130 0 232 -69zM1634 265q76 94 76 263q0 170 -76 264q-77 95 -202 95q-124 0 -201 -84q-76 -83 -76 -213v-125q0 -128 76 -211q77 -84 201 -84q125 0 202 95z" />
    <glyph glyph-name="f_f_b" horiz-adv-x="2707" 
d="M2437 1021q104 -70 160 -196q57 -127 57 -297q0 -168 -57 -296q-56 -126 -160 -196q-102 -69 -231 -69q-135 0 -241 83q-105 82 -150 245h-11l-10 -295h-283v1221h-217q-72 0 -107 -32q-34 -31 -34 -99v-33h277v-180h-271v-877h-291v877h-358v-877h-291v877h-194v180h194
v41q0 189 97 277q98 89 307 89q93 0 198 -4v-231q-99 4 -149 4q-98 0 -133 -29t-35 -106v-41h364v33q0 360 392 360h544v-690h11q45 165 150 247q106 83 241 83q129 0 231 -69zM2284 265q75 93 75 263q0 171 -75 264q-77 95 -203 95q-125 0 -201 -84q-76 -83 -76 -213v-125
q0 -128 76 -211q76 -84 201 -84q126 0 203 95z" />
    <glyph glyph-name="f_f_h" horiz-adv-x="2693" 
d="M2399 1041q91 -49 143 -140q53 -92 53 -219v-682h-293v594q0 130 -61 198t-179 68q-119 0 -188 -82q-70 -84 -70 -225v-553h-293v1235h-217q-72 0 -107 -32q-34 -31 -34 -99v-47h277v-180h-271v-877h-291v877h-358v-877h-291v877h-194v180h194v41q0 189 97 277
q98 89 307 89q93 0 198 -4v-231q-99 4 -149 4q-98 0 -133 -29t-35 -106v-41h364v47q0 172 96 268q94 94 296 94h544v-731h13q23 162 132 258q111 97 255 97q105 0 195 -49z" />
    <glyph glyph-name="f_f_j" horiz-adv-x="1904" 
d="M1804 1057v-1098q0 -134 -32 -204q-33 -72 -115 -105q-83 -33 -236 -33q-96 0 -143 4v217q40 -2 78 -2q70 0 100 11q32 12 44 37q11 23 11 77v916h-352v-877h-291v877h-358v-877h-291v877h-194v180h194v41q0 189 97 277q98 89 307 89q93 0 198 -4v-231q-99 4 -149 4
q-98 0 -133 -29t-35 -106v-41h364v47q0 172 96 268q94 94 296 94h544l-2 -231h-508q-72 0 -107 -32q-34 -31 -34 -99v-47h651z" />
    <glyph glyph-name="f_f_k" horiz-adv-x="2598" 
d="M2595 0h-299l-90 248q-30 83 -75 125q-44 41 -118 41h-76l-133 -129v-285h-286v1235h-224q-72 0 -107 -32q-34 -31 -34 -99v-47h277v-180h-271v-877h-291v877h-358v-877h-291v877h-194v180h194v41q0 189 97 277q98 89 307 89q93 0 198 -4v-231q-99 4 -149 4
q-98 0 -133 -29t-35 -106v-41h364v47q0 172 96 268q94 94 296 94h544v-512q0 -192 -8 -366l10 -4q54 78 110 139q60 65 148 149l193 185h336l-211 -207q-138 -134 -248 -225l2 -11l31 -2q106 -1 172 -57q65 -55 106 -162z" />
    <glyph glyph-name="f_f_r" horiz-adv-x="2306" 
d="M1815 651q24 161 71 252q47 90 137 131q91 41 246 41v-246q-173 -11 -269 -46q-99 -37 -145 -116q-47 -81 -51 -231v-436h-293v877h-352v-877h-291v877h-358v-877h-291v877h-194v180h194v41q0 189 97 277q98 89 307 89q93 0 198 -4v-231q-99 4 -149 4q-98 0 -133 -29
t-35 -106v-41h364v47q0 172 96 268q94 94 296 94h538l-2 -231h-502q-72 0 -107 -32q-34 -31 -34 -99v-47h643l8 -406h11z" />
    <glyph glyph-name="f_f_y" horiz-adv-x="2469" 
d="M2161 1057h305l-402 -1084q-56 -146 -127 -226q-73 -82 -169 -113t-242 -31q-47 0 -131 4v227q35 -4 102 -4q94 0 138 29q46 30 79 104l17 41l-318 873h-254v-877h-291v877h-358v-877h-291v877h-194v180h194v41q0 189 97 277q98 89 307 89q93 0 198 -4v-231q-99 4 -149 4
q-98 0 -133 -29t-35 -106v-41h364v41q0 188 98 277t306 89q93 0 198 -4v-231q-99 4 -149 4q-98 0 -133 -29t-35 -106v-41h510l72 -232l37 -123q71 -227 133 -446h10q53 184 158 520l18 55z" />
    </font>
</defs>
</svg>
