<?xml version="1.0" standalone="no"?>
<!DOCTYPE svg PUBLIC "-//W3C//DTD SVG 1.1//EN" "http://www.w3.org/Graphics/SVG/1.1/DTD/svg11.dtd" >
<svg xmlns="http://www.w3.org/2000/svg" xmlns:xlink="http://www.w3.org/1999/xlink" version="1.1">
<metadata>
Created by FontForge 20201107 at Tue Aug  6 13:46:12 2024
 By 
Copyright (c) 2020 Andrea Biggio &#38; The Designers Foundry. All rights reserved.
</metadata>
<defs>
<font id="TomatoGrotesk-ExtraBold" horiz-adv-x="1957" >
  <font-face 
    font-family="Tomato Grotesk ExtraBold"
    font-weight="800"
    font-stretch="normal"
    units-per-em="2048"
    panose-1="0 0 9 0 0 0 0 0 0 0"
    ascent="1638"
    descent="-410"
    x-height="1057"
    cap-height="1434"
    bbox="-836 -623 4811 2015"
    underline-thickness="102"
    underline-position="-491"
    unicode-range="U+0020-1F345"
  />
<missing-glyph horiz-adv-x="1024" 
d="M190 1638h650v-2048h-650v2048zM682 1434v67h-338v-67h133v-76h-135v-68h340v68h-135v76h135zM547 1094v143h-205v-213h340v70h-135zM410 1167h67v-73h-67v73zM682 901v68h-340v-68h135v-76h-135v-67h205v143h135zM682 641v205h-68v-135h-272v-70h340zM682 365v231h-205
v-115h70v47h67v-96h-204v164h-68v-231h340zM682 10v232h-340v-232h340zM410 174h204v-96h-204v96zM682 -104v67h-340v-67h143l-143 -97v-67h340v67h-209l143 97h66z" />
    <glyph glyph-name="f_f" unicode="ff" horiz-adv-x="1587" 
d="M1258 1184q-31 -24 -31 -97v-30h317v-199h-309v-858h-334v858h-340v-858h-334v858h-204v199h204v30q0 192 101 287t317 96q126 0 225 -6v-258q-105 4 -161 4q-92 -2 -124 -26t-32 -97v-30h348v30q0 193 100 287q101 94 318 96q126 0 225 -6v-258q-105 4 -162 4
q-92 -2 -124 -26z" />
    <glyph glyph-name="f_f_i" unicode="ffi" horiz-adv-x="2007" 
d="M1261 1187q-32 -27 -32 -91v-39h682v-1057h-334v858h-340v-858h-334v858h-342v-858h-334v858h-204v199h204v30q0 192 101 287t317 96q126 0 225 -6v-258q-105 4 -161 4q-92 -2 -124 -26t-32 -97v-30h350v30q0 189 99 286q98 97 311 97h598v-256h-553q-66 0 -97 -27z" />
    <glyph glyph-name="f_f_l" unicode="ffl" horiz-adv-x="2004" 
d="M1911 1470v-1470h-334v1214h-219q-66 0 -97 -27q-32 -27 -32 -91v-39h266v-199h-258v-858h-334v858h-342v-858h-334v858h-204v199h204v30q0 192 101 287t317 96q126 0 225 -6v-258q-105 4 -161 4q-92 -2 -124 -26t-32 -97v-30h350v30q0 189 99 286q98 97 311 97h598z" />
    <glyph glyph-name="f_i" unicode="fi" horiz-adv-x="1331" 
d="M585 1187q-32 -27 -32 -91v-39h682v-1057h-334v858h-340v-858h-334v858h-204v199h204v30q0 188 100 286q98 97 310 97h598v-256h-553q-66 0 -97 -27z" />
    <glyph glyph-name="f_l" unicode="fl" horiz-adv-x="1329" 
d="M1235 1470v-1470h-334v1214h-219q-66 0 -97 -27q-32 -27 -32 -91v-39h266v-199h-258v-858h-334v858h-204v199h204v30q0 188 100 286q98 97 310 97h598z" />
    <glyph glyph-name="w_w_w" unicode="www" horiz-adv-x="4812" 
d="M4454 1057h357l-350 -1057h-351l-182 659h-12l-180 -659h-351l-221 661l-219 -661h-350l-182 659h-13l-180 -659h-350l-221 661l-220 -661h-350l-182 659h-12l-181 -659h-350l-352 1057h358l60 -197l31 -106q67 -228 102 -375h10q32 129 103 403l20 78l53 197h303
l56 -197q75 -289 121 -481h12q26 108 49 189q23 85 39 143q26 87 43 149l61 197h453l59 -197l31 -106q68 -228 102 -375h11q63 251 102 403l21 78l53 197h303l55 -197q75 -289 121 -481h12q19 75 50 189q8 29 15.5 57t14 52.5t8.5 33.5q26 87 43 149l62 197h452l60 -197
l31 -106q68 -228 102 -375h10q32 129 103 403l20 78l53 197h303l56 -197q75 -289 121 -481h12q26 108 49 189q23 85 39 143q26 87 43 149z" />
    <glyph glyph-name=".notdef" horiz-adv-x="1024" 
d="M190 1638h650v-2048h-650v2048zM682 1434v67h-338v-67h133v-76h-135v-68h340v68h-135v76h135zM547 1094v143h-205v-213h340v70h-135zM410 1167h67v-73h-67v73zM682 901v68h-340v-68h135v-76h-135v-67h205v143h135zM682 641v205h-68v-135h-272v-70h340zM682 365v231h-205
v-115h70v47h67v-96h-204v164h-68v-231h340zM682 10v232h-340v-232h340zM410 174h204v-96h-204v96zM682 -104v67h-340v-67h143l-143 -97v-67h340v67h-209l143 97h66z" />
    <glyph glyph-name=".null" horiz-adv-x="0" 
 />
    <glyph glyph-name="nonmarkingreturn" horiz-adv-x="682" 
 />
    <glyph glyph-name="space" unicode=" " horiz-adv-x="446" 
 />
    <glyph glyph-name="exclam" unicode="!" horiz-adv-x="552" 
d="M156 496l-60 938h363l-60 -938h-243zM128 27q-60 60 -60 147q0 88 60 147q59 58 151 58q88 0 147 -58t59 -147q0 -88 -58 -147q-59 -60 -148 -60q-91 0 -151 60z" />
    <glyph glyph-name="quotedbl" unicode="&#x22;" horiz-adv-x="1034" 
d="M416 725h-246l-61 709h366zM866 725h-245l-62 709h367z" />
    <glyph glyph-name="numbersign" unicode="#" horiz-adv-x="1550" 
d="M242 315h-176v265h229l59 297h-184v262h240l59 295h289l-49 -295h301l59 295h287l-47 -295h176v-262h-232l-61 -297h188v-265h-241l-64 -315h-284l51 315h-303l-64 -315h-285zM655 877l-61 -297h301l59 297h-299z" />
    <glyph glyph-name="dollar" unicode="$" horiz-adv-x="1366" 
d="M1181 96q-151 -113 -423 -125v-221h-139v221q-283 17 -435 146q-151 129 -147 352h350q10 -90 70 -142q59 -52 162 -67v332l-136 29q-205 43 -311 148t-106 263q0 192 148 306q148 113 417 124v221h139v-221q263 -18 405 -148t148 -353h-344q-5 89 -58 142
q-54 54 -151 71v-334l231 -54q158 -35 244 -131q86 -97 86 -252q0 -195 -150 -307zM478 935q47 -40 138 -61l15 -4v308q-95 -7 -149 -46q-52 -37 -52 -102q0 -54 48 -95zM758 256q103 11 155 49q54 40 54 105q0 53 -39 89q-38 35 -115 50l-55 12v-305z" />
    <glyph glyph-name="percent" unicode="%" horiz-adv-x="1875" 
d="M133 709q-92 112 -92 319q0 210 92 322q91 110 275 110t275 -110t91 -322q0 -207 -92 -319q-92 -111 -274 -111q-183 0 -275 111zM659 0h-208l766 1434h208zM507 852q28 65 28 176q0 116 -28 180q-27 62 -99 62q-75 0 -102 -64q-27 -63 -27 -178q0 -118 28 -178
q29 -62 101 -62t99 64zM1194 82q-92 112 -92 319q0 210 92 322q92 111 274 111q184 0 275 -111q92 -112 92 -322q0 -207 -92 -319q-91 -111 -275 -111q-182 0 -274 111zM1568 226q27 63 27 175q0 119 -27 181q-27 61 -100 61q-74 0 -101 -62q-28 -65 -28 -180
q0 -116 29 -177q28 -60 100 -60q73 0 100 62z" />
    <glyph glyph-name="ampersand" unicode="&#x26;" horiz-adv-x="1464" 
d="M1464 0h-374l-86 90q-105 -63 -219 -93t-205 -30q-160 0 -283 47q-118 45 -186 133q-66 85 -66 203q0 140 97 236q99 97 264 121l2 10q-119 113 -164 196q-47 86 -47 185q0 110 60 194t169 131t246 47q129 0 230 -43q103 -44 158 -118q56 -75 56 -174q0 -130 -102 -223
q-101 -92 -285 -115l-4 -11l283 -301q52 100 59 234h297q-21 -266 -158 -445zM568 1181q-40 -37 -40 -102q0 -52 33 -109q32 -55 135 -155q64 50 103 121q37 68 37 141q0 64 -43 103t-113 39q-71 0 -112 -38zM817 287l-379 399q-54 -39 -83 -92q-29 -54 -29 -113
q0 -101 77 -172t224 -71q92 0 190 49z" />
    <glyph glyph-name="quotesingle" unicode="'" horiz-adv-x="583" 
d="M416 725h-246l-61 709h366z" />
    <glyph glyph-name="parenleft" unicode="(" horiz-adv-x="618" 
d="M309 -381q-126 269 -178 484q-53 220 -53 497q0 281 53 504q52 217 178 479h305q-103 -227 -149 -459q-47 -237 -47 -524q0 -271 47 -508q46 -230 149 -473h-305z" />
    <glyph glyph-name="parenright" unicode=")" horiz-adv-x="618" 
d="M4 -381q105 248 150 473q47 237 47 508q0 287 -47 524q-45 228 -150 459h305q126 -262 178 -479q54 -227 54 -504q0 -273 -54 -497q-52 -215 -178 -484h-305z" />
    <glyph glyph-name="asterisk" unicode="*" horiz-adv-x="882" 
d="M362 748q-22 -78 -90 -78q-52 0 -98 43q-47 44 -47 94q0 47 47 80l207 151l-4 11l-238 -29q-10 -2 -22 -2q-42 0 -64 28q-20 26 -20 68q0 61 34 113q35 53 80 53q27 0 58 -25l192 -151l9 8l-93 219q-10 20 -10 45q0 46 41 70q40 24 96 24q58 0 99 -24t41 -70
q0 -23 -11 -45l-92 -219l10 -8l191 151q31 25 59 25q47 0 80 -51t33 -111q0 -50 -27 -78q-26 -28 -80 -20l-235 29l-4 -11l205 -149q47 -35 47 -82q0 -50 -47 -94q-46 -43 -101 -43q-29 0 -52 19q-24 19 -36 59l-74 245h-10z" />
    <glyph glyph-name="plus" unicode="+" horiz-adv-x="1120" 
d="M713 870h350v-280h-350v-354h-305v354h-351v280h351v353h305v-353z" />
    <glyph glyph-name="comma" unicode="," horiz-adv-x="600" 
d="M68 -342l129 709h335l-229 -709h-235z" />
    <glyph glyph-name="hyphen" unicode="-" horiz-adv-x="757" 
d="M700 436h-643v277h643v-277z" />
    <glyph glyph-name="period" unicode="." horiz-adv-x="552" 
d="M128 29q-60 60 -60 147q0 88 60 147q59 58 151 58q88 0 147 -58t59 -147q0 -88 -58 -147q-59 -60 -148 -60q-91 0 -151 60z" />
    <glyph glyph-name="slash" unicode="/" horiz-adv-x="831" 
d="M319 0h-321l514 1434h322z" />
    <glyph glyph-name="zero" unicode="0" horiz-adv-x="1402" 
d="M223 171q-153 201 -153 546q0 349 155 549t480 200q322 0 475 -201t153 -548t-154 -547q-155 -201 -474 -201q-328 0 -482 202zM896 356q62 117 62 361q0 245 -62 362q-63 119 -191 119q-135 0 -198 -118q-63 -119 -63 -363q0 -243 63 -362q62 -117 198 -117
q128 0 191 118z" />
    <glyph glyph-name="one" unicode="1" horiz-adv-x="876" 
d="M393 1026q-44 -90 -114 -129q-73 -41 -203 -41h-25v324q190 0 301 65q112 66 135 189h281v-1434h-360v1024z" />
    <glyph glyph-name="two" unicode="2" horiz-adv-x="1267" 
d="M70 295l53 35q282 188 407 280q141 104 222 202q84 102 84 202q0 83 -52 133q-50 49 -137 49q-95 0 -152 -57q-58 -58 -65 -168h-346q10 249 159 371t404 122q244 0 396 -113q153 -114 151 -327q0 -144 -86 -266q-84 -120 -212 -211q-130 -93 -333 -215l-57 -35l4 -16
q63 10 136 13q69 3 190 3h329v-297h-1095v295z" />
    <glyph glyph-name="three" unicode="3" horiz-adv-x="1318" 
d="M918 760q152 -12 249 -100t97 -234q0 -151 -77 -255q-78 -105 -207 -154q-132 -50 -294 -50q-272 0 -444 126t-174 392h346q0 -133 71 -191t193 -58q105 0 160 52t55 140t-55 137t-162 49h-125v252h141q94 0 141 43q48 43 48 121t-58 122t-145 44q-224 0 -225 -225h-349
q1 250 166 372q163 121 418 121q142 0 266 -47q123 -47 198 -135t75 -209q0 -120 -83 -208q-82 -87 -226 -91v-14z" />
    <glyph glyph-name="four" unicode="4" horiz-adv-x="1361" 
d="M1116 0h-362v291h-686v340l651 803h397v-875h189v-268h-189v-291zM342 559h424v576h-16q-27 -73 -80 -155q-49 -76 -152 -202z" />
    <glyph glyph-name="five" unicode="5" horiz-adv-x="1269" 
d="M989 903q103 -56 164 -166q59 -106 59 -254q0 -161 -77 -276q-77 -116 -206 -178t-276 -62q-251 0 -409 116q-157 115 -174 335h333q8 -96 71 -146q62 -49 173 -49q110 0 169 64q58 62 58 184q0 115 -63 182q-63 68 -168 68q-88 0 -144 -34q-57 -34 -89 -109l-316 71
l133 785h908v-269h-625l-76 -372l12 -5q30 73 112 123t200 50q124 0 231 -58z" />
    <glyph glyph-name="six" unicode="6" horiz-adv-x="1306" 
d="M416 719q27 109 122 170q93 59 250 59q136 0 239 -57t162 -167q58 -109 58 -259q0 -160 -79 -272t-209 -169q-131 -57 -285 -57q-293 0 -449 186q-155 185 -155 529q0 376 152 580t458 204q206 0 361 -95q156 -95 184 -308h-326q-21 71 -72 109q-52 38 -147 38
q-154 0 -218 -121q-65 -122 -63 -370h17zM847 300q62 63 62 165q0 98 -62 164q-63 67 -171 67q-111 0 -174 -66q-64 -67 -64 -165q0 -100 65 -165q64 -64 175 -64q106 0 169 64z" />
    <glyph glyph-name="seven" unicode="7" horiz-adv-x="1095" 
d="M848 1165h-823v269h1046v-291q-169 -174 -264 -339q-93 -162 -134 -354q-39 -184 -44 -450h-375q6 362 160 676q152 310 436 475z" />
    <glyph glyph-name="eight" unicode="8" horiz-adv-x="1288" 
d="M201 78q-158 111 -158 317q0 149 79 238q80 90 220 117v14q-114 21 -176 103q-64 84 -64 212q0 116 68 204t191 135q125 48 290 48q163 0 284 -48q122 -48 189 -136q68 -89 68 -203q0 -128 -66 -211q-65 -82 -182 -104v-14q146 -27 225 -117q80 -91 80 -238
q0 -206 -154 -317q-155 -111 -444 -111q-293 0 -450 111zM811 901q57 45 57 135q0 86 -57 132q-56 46 -164 46q-107 0 -165 -46t-58 -132q0 -90 58 -135t165 -45t164 45zM831 287q66 51 66 145q0 98 -66 147q-67 50 -184 50q-119 0 -186 -50q-66 -49 -66 -147q0 -93 67 -145
q66 -51 185 -51q118 0 184 51z" />
    <glyph glyph-name="nine" unicode="9" horiz-adv-x="1310" 
d="M895 715q-28 -110 -123 -170q-94 -60 -250 -60q-132 0 -239 58q-104 56 -163 167q-59 110 -59 259q0 160 79 272t210 169q128 56 287 56q293 0 448 -185q156 -186 156 -529q0 -376 -152 -580q-153 -205 -458 -205q-207 0 -362 95q-154 94 -183 309h324q21 -74 71 -110
q52 -38 150 -38q154 0 217 122q63 121 61 370h-14zM463 1134q-62 -65 -62 -165q0 -98 62 -165t172 -67q109 0 173 67q62 65 62 165q0 101 -63 165t-174 64q-109 0 -170 -64z" />
    <glyph glyph-name="colon" unicode=":" horiz-adv-x="552" 
d="M128 664q-60 60 -60 147t60 146q61 59 151 59q86 0 147 -59q59 -58 59 -146t-58 -147q-59 -60 -148 -60q-91 0 -151 60zM128 29q-60 60 -60 147q0 88 60 147q59 58 151 58q88 0 147 -58t59 -147q0 -88 -58 -147q-59 -60 -148 -60q-91 0 -151 60z" />
    <glyph glyph-name="semicolon" unicode=";" horiz-adv-x="647" 
d="M222 664q-60 60 -60 147t60 146q61 59 151 59q86 0 147 -59q60 -59 60 -146q0 -86 -59 -147q-58 -60 -148 -60q-91 0 -151 60zM68 -342l129 709h335l-229 -709h-235z" />
    <glyph glyph-name="less" unicode="&#x3c;" horiz-adv-x="1079" 
d="M352 707q358 -94 576 -166l94 -35v-326l-965 369v325l965 369v-323l-94 -37q-165 -55 -576 -164v-12z" />
    <glyph glyph-name="equal" unicode="=" horiz-adv-x="1120" 
d="M57 1065h1006v-262h-1006v262zM57 655h1006v-262h-1006v262z" />
    <glyph glyph-name="greater" unicode="&#x3e;" horiz-adv-x="1079" 
d="M727 719q-380 100 -573 164l-97 37v323l965 -369v-325l-965 -369v326l97 35q227 76 573 166v12z" />
    <glyph glyph-name="question" unicode="?" horiz-adv-x="1130" 
d="M387 477q0 115 14 174q15 64 57 113q41 48 130 104q73 47 108 87q32 37 37 94q0 71 -43 108t-125 37q-105 0 -149 -50t-45 -171h-336q0 261 138 379q137 118 402 118q231 0 374 -100q145 -101 145 -285q0 -207 -211 -352q-77 -53 -115 -86q-33 -28 -46 -65
q-14 -38 -15 -105h-320zM396 27q-60 60 -60 147q0 88 60 147q59 58 151 58q88 0 147 -58q60 -59 60 -147q0 -86 -59 -147q-59 -60 -148 -60q-91 0 -151 60z" />
    <glyph glyph-name="at" unicode="@" horiz-adv-x="1740" 
d="M520 -508q-216 113 -345 330q-128 215 -128 506q0 238 104 449q103 209 309 340q205 130 496 130q312 0 503 -145q192 -145 192 -451v-651h-318l-10 322h-12q-18 -166 -125 -261q-106 -94 -277 -94q-157 0 -257 74q-99 73 -99 219q0 142 106 224q107 83 326 81
q137 -1 211 17q72 18 99 58q28 42 28 114q0 111 -91 187q-92 77 -267 77q-220 0 -372 -94q-150 -93 -228 -248q-76 -152 -76 -334q0 -228 96 -395q95 -165 261 -251q165 -86 366 -87q235 -4 473 110v-241q-235 -101 -488 -101q-258 0 -477 115zM1174 211q69 38 108 98
q41 62 41 135v164h-12q-11 -69 -40 -112q-30 -44 -92 -69q-66 -27 -173 -34q-55 -4 -86 -32t-31 -76q0 -53 38 -82t105 -29q75 0 142 37z" />
    <glyph glyph-name="A" unicode="A" horiz-adv-x="1509" 
d="M1511 0h-383l-104 313h-553l-102 -313h-371l524 1434h449zM559 582h375l-72 211q-68 211 -108 358h-17q-45 -169 -108 -360z" />
    <glyph glyph-name="B" unicode="B" horiz-adv-x="1394" 
d="M936 784q211 -7 317 -109q107 -102 107 -255q0 -208 -135 -314q-134 -106 -398 -106h-718v1434h798q201 0 311 -83q109 -82 109 -235q0 -147 -102 -230q-102 -82 -289 -87v-15zM471 1157v-317h291q98 0 147 43t49 123q0 73 -45 112t-135 39h-307zM801 276q89 0 138 43
q50 44 50 121q0 72 -51 114t-139 42h-328v-320h330z" />
    <glyph glyph-name="C" unicode="C" horiz-adv-x="1511" 
d="M1466 567q-11 -185 -97 -319q-88 -136 -239 -208q-154 -73 -356 -73q-226 0 -389 90q-164 90 -251 258t-87 402q0 232 87 402q87 169 251 258t389 89q205 0 358 -72q151 -71 238 -208q85 -135 96 -322h-366q-15 153 -102 238q-88 86 -228 86q-164 0 -255 -124t-91 -347
q0 -221 93 -346t257 -125q141 0 227 86q87 87 99 235h366z" />
    <glyph glyph-name="D" unicode="D" horiz-adv-x="1503" 
d="M1091 1357q166 -76 266 -238q99 -161 99 -402q0 -373 -207 -545q-206 -172 -534 -172h-606v1434h606q208 0 376 -77zM700 276q170 0 277 110q106 109 106 331q0 230 -106 335q-107 105 -277 105h-229v-881h229z" />
    <glyph glyph-name="E" unicode="E" horiz-adv-x="1284" 
d="M1231 1434v-277h-760v-285h680v-270h-680v-326h760v-276h-1122v1434h1122z" />
    <glyph glyph-name="F" unicode="F" horiz-adv-x="1212" 
d="M1188 1434v-277h-717v-285h659v-270h-659v-602h-362v1434h1079z" />
    <glyph glyph-name="G" unicode="G" horiz-adv-x="1601" 
d="M1186 336q-38 -158 -159 -263q-123 -106 -335 -106q-180 0 -327 87t-233 257q-85 169 -85 406q0 233 91 402q92 169 258 258q167 89 390 89q299 0 481 -139q183 -140 216 -397h-371q-18 119 -102 188q-85 70 -213 70q-178 0 -277 -122q-98 -120 -98 -349q0 -239 104 -355
t305 -116q151 0 242 73q93 75 105 191l2 16h-455v244h788v-770h-296l-15 336h-16z" />
    <glyph glyph-name="H" unicode="H" horiz-adv-x="1497" 
d="M1026 856v578h363v-1434h-363v580h-555v-580h-362v1434h362v-578h555z" />
    <glyph glyph-name="I" unicode="I" horiz-adv-x="579" 
d="M109 0v1434h362v-1434h-362z" />
    <glyph glyph-name="J" unicode="J" horiz-adv-x="1222" 
d="M45 571h348v-82q0 -129 46 -187t145 -58q98 0 143 61t45 195v934h363v-936q0 -282 -153 -407q-152 -124 -390 -124q-240 0 -394 119q-153 118 -153 403v82z" />
    <glyph glyph-name="K" unicode="K" horiz-adv-x="1490" 
d="M920 829q140 0 220 -71t140 -240l186 -518h-370l-152 412q-33 91 -76 123q-42 32 -131 32h-80l-186 -202v-365h-362v1434h362l-10 -633l14 -2q102 139 264 323l277 312h428l-320 -355q-155 -168 -223 -237l4 -13h15z" />
    <glyph glyph-name="L" unicode="L" horiz-adv-x="1185" 
d="M471 1434v-1158h690v-276h-1052v1434h362z" />
    <glyph glyph-name="M" unicode="M" horiz-adv-x="1884" 
d="M109 0v1434h532l170 -529q77 -240 123 -407h16q46 167 123 407l170 529h533v-1434h-355v627q0 314 4 463l-14 2q-32 -121 -86 -293q-15 -46 -51 -172l-189 -627h-286l-189 627q-36 126 -51 172q-54 172 -86 293l-14 -2q4 -149 4 -463v-627h-354z" />
    <glyph glyph-name="N" unicode="N" horiz-adv-x="1538" 
d="M453 971q4 -153 4 -473v-498h-348v1434h393l342 -557q123 -198 221 -375l16 4q-6 156 -6 426v502h355v-1434h-381l-328 543l-41 69q-121 201 -211 363z" />
    <glyph glyph-name="O" unicode="O" horiz-adv-x="1572" 
d="M394 59q-168 91 -257 259q-90 170 -90 399q0 231 90 400q89 168 257 259q166 90 392 90t393 -90q168 -91 257 -259q90 -169 90 -400t-89 -400q-88 -167 -256 -258q-166 -90 -395 -90q-225 0 -392 90zM1056 362q95 118 95 355q0 233 -95 352t-270 119q-174 0 -268 -118
t-94 -353q0 -239 94 -355t268 -116q176 0 270 116z" />
    <glyph glyph-name="P" unicode="P" horiz-adv-x="1370" 
d="M1066 1376q121 -57 189 -166t68 -258q0 -144 -70 -254q-69 -108 -195 -168q-124 -59 -290 -59h-297v-471h-362v1434h675q158 0 282 -58zM705 717q115 0 184 57t69 162q0 104 -69 163q-68 58 -184 58h-234v-440h234z" />
    <glyph glyph-name="Q" unicode="Q" horiz-adv-x="1572" 
d="M739 -106q-348 117 -520 307t-172 516q0 227 90 396t257 261t394 92q226 0 393 -92q168 -92 256 -261q89 -170 89 -396q0 -285 -143 -481t-447 -218v-16l577 -16v-348zM1059 364q94 118 94 353q0 233 -95 352t-270 119q-176 0 -270 -118t-94 -353t93 -353t271 -118
q177 0 271 118z" />
    <glyph glyph-name="R" unicode="R" horiz-adv-x="1406" 
d="M1372 0h-362l-43 309q-11 79 -34 117t-72 53q-48 15 -140 15h-250v-494h-362v1434h768q217 0 338 -94q120 -93 120 -265q0 -154 -104 -252q-103 -97 -277 -108v-15q119 -2 188 -28q70 -27 109 -88q40 -63 56 -166zM760 737q100 0 162 60q61 60 61 157q0 90 -61 147
q-60 56 -162 56h-289v-420h289z" />
    <glyph glyph-name="S" unicode="S" horiz-adv-x="1366" 
d="M204 100q-172 131 -167 369h350q12 -107 93 -161t222 -54q128 0 196 40q69 40 69 116q0 53 -39 89q-38 35 -115 50l-330 72q-205 43 -311 148t-106 263q0 204 163 318t457 114q298 0 465 -131q166 -130 172 -372h-344q-6 104 -82 161q-78 58 -211 58q-123 0 -189 -39
q-67 -40 -67 -113q0 -54 48 -94q49 -41 138 -62l385 -86q159 -38 244 -133q86 -97 86 -250q0 -205 -168 -319q-169 -115 -471 -115q-316 0 -488 131z" />
    <glyph glyph-name="T" unicode="T" horiz-adv-x="1296" 
d="M1272 1434v-277h-438v-1157h-363v1157h-446v277h1247z" />
    <glyph glyph-name="U" unicode="U" horiz-adv-x="1472" 
d="M88 1434h363v-879q0 -305 284 -305q148 0 218 76q71 77 71 229v879h360v-904q0 -285 -178 -424t-471 -139q-179 0 -328 61q-148 60 -233 189q-86 130 -86 326v891z" />
    <glyph glyph-name="V" unicode="V" horiz-adv-x="1447" 
d="M514 0l-516 1434h387l84 -271l111 -360l143 -471h14q34 114 226 729l30 100l84 273h373l-504 -1434h-432z" />
    <glyph glyph-name="W" unicode="W" horiz-adv-x="2041" 
d="M391 0l-393 1434h379l33 -138q36 -171 86 -378q10 -49 53 -242q37 -167 57 -266h17q21 126 110 546q44 201 74 349l29 129h370l27 -129l65 -304q4 -19 22 -100.5t32 -146.5q39 -181 67 -344h15q43 208 176 788l22 98l33 138h379l-395 -1434h-412l-209 989h-14l-211 -989
h-412z" />
    <glyph glyph-name="X" unicode="X" horiz-adv-x="1417" 
d="M-2 0l500 739l-461 695h420l37 -64q50 -81 59 -98q103 -161 152 -260h16q24 56 63 120q26 43 78 125l74 123l33 54h407l-458 -689l501 -745h-422l-47 72q-154 233 -239 395h-17q-80 -152 -243 -401l-43 -66h-410z" />
    <glyph glyph-name="Y" unicode="Y" horiz-adv-x="1415" 
d="M1417 1434l-524 -865v-569h-365v569l-530 865h408l92 -158q152 -260 213 -387h14q72 149 211 395l86 150h395z" />
    <glyph glyph-name="Z" unicode="Z" horiz-adv-x="1308" 
d="M53 0l-2 283l762 847l-6 15q-186 -15 -518 -15h-199v304h1157v-287l-762 -844l9 -14q227 14 434 14h329v-303h-1204z" />
    <glyph glyph-name="bracketleft" unicode="[" horiz-adv-x="757" 
d="M733 -381h-624v1962h624v-274h-309v-1413h309v-275z" />
    <glyph glyph-name="backslash" unicode="\" horiz-adv-x="831" 
d="M319 1434l515 -1434h-322l-514 1434h321z" />
    <glyph glyph-name="bracketright" unicode="]" horiz-adv-x="757" 
d="M649 1581v-1962h-624v275h309v1413h-309v274h624z" />
    <glyph glyph-name="asciicircum" unicode="^" horiz-adv-x="874" 
d="M432 1186q-5 -21 -28 -81q-21 -53 -50 -118l-18 -41l-45 -98h-289l281 586h309l280 -586h-288l-45 94q-78 183 -95 244h-12z" />
    <glyph glyph-name="underscore" unicode="_" horiz-adv-x="1019" 
d="M1022 -356h-1024v241h1024v-241z" />
    <glyph glyph-name="grave" unicode="`" horiz-adv-x="733" 
d="M733 1366l-71 -182l-662 246l84 204z" />
    <glyph glyph-name="a" unicode="a" horiz-adv-x="1224" 
d="M144 484q108 82 325 81q196 -2 266 35q72 38 72 107q0 56 -47 97q-46 40 -146 40q-103 0 -164 -56q-62 -57 -69 -155h-330q15 200 154 328q139 129 405 129q261 0 392 -118q133 -119 133 -300v-672h-318l-10 322h-10q-21 -167 -127 -261t-277 -94q-157 0 -257 74
q-99 73 -99 219q0 142 107 224zM412 203q40 -29 106 -29q75 0 140 37q70 40 108 99q41 64 41 134v164h-10q-11 -69 -40 -112q-30 -44 -92 -69q-66 -27 -173 -34q-56 -5 -88 -32q-31 -27 -31 -76q0 -53 39 -82z" />
    <glyph glyph-name="b" unicode="b" horiz-adv-x="1312" 
d="M1054 1021q98 -68 155 -196q57 -127 57 -297t-57 -297t-155 -194q-100 -68 -227 -68q-133 0 -237 79t-154 243h-12l-10 -291h-324v1434h334v-670h12q50 167 154 246q106 80 237 80q128 0 227 -69zM861 279q69 89 69 249q0 163 -69 251q-69 89 -185 89q-115 0 -183 -75
q-69 -77 -69 -199v-133q0 -119 69 -195t183 -76q116 0 185 89z" />
    <glyph glyph-name="c" unicode="c" horiz-adv-x="1165" 
d="M120 834q71 123 201 190q128 66 287 66q234 0 378 -126q146 -127 153 -343h-330q-1 111 -56 167q-54 56 -147 56q-106 0 -163 -79q-56 -78 -56 -224q0 -328 219 -328q100 0 150 57q48 56 53 174h330q-4 -155 -78 -263t-193 -161q-120 -53 -260 -53q-157 0 -283 60
t-202 187t-76 323q0 171 73 297z" />
    <glyph glyph-name="d" unicode="d" horiz-adv-x="1312" 
d="M889 1434h334v-1434h-324l-10 289h-12q-49 -163 -153 -243q-103 -79 -237 -79q-126 0 -227 68q-100 67 -157 193q-56 124 -56 296q0 174 56 299q57 128 157 195t227 67q135 0 237 -78q104 -80 153 -245h12v672zM820 263q69 75 69 196v133q0 120 -69 196t-183 76
q-116 0 -185 -89t-69 -251t69 -249t185 -87q114 0 183 75z" />
    <glyph glyph-name="e" unicode="e" horiz-adv-x="1208" 
d="M1153 459h-790q5 -114 76 -180q72 -66 188 -66q89 0 151 43q64 44 82 111h285q-17 -135 -98 -224q-82 -89 -195 -133q-111 -43 -225 -43q-269 0 -425 148q-155 147 -155 417q0 166 69 292q70 128 194 196q128 70 294 70q168 0 294 -73q122 -71 189 -197q66 -124 66 -275
v-86zM435 788q-65 -56 -72 -159h464q-7 100 -71 158q-63 57 -160 57q-96 0 -161 -56z" />
    <glyph glyph-name="f" unicode="f" horiz-adv-x="913" 
d="M585 1184q-32 -24 -32 -97v-30h317v-199h-309v-858h-334v858h-204v199h204v30q0 192 101 287t317 96q126 0 225 -6v-258q-105 4 -161 4q-92 -2 -124 -26z" />
    <glyph glyph-name="g" unicode="g" horiz-adv-x="1239" 
d="M1198 1008l-377 71l-4 -14q123 -30 200 -116t77 -206q0 -166 -130 -260t-360 -94q-84 0 -153 12q-46 -12 -63 -31q-17 -18 -17 -46q0 -36 32 -56q31 -20 93 -20h295q203 0 303 -79t100 -255q0 -350 -571 -350q-303 0 -428 57t-125 176q0 177 295 199v10q-131 8 -198 64
t-67 135q0 95 77 145q75 48 218 53v11q-137 38 -209 122q-73 85 -73 207q0 140 98 228q99 88 344 133q147 28 483 104l160 35v-235zM741 647q50 38 50 96q0 56 -50 91q-49 34 -137 34q-89 0 -138 -34q-50 -35 -50 -91q0 -59 49 -96t139 -37q88 0 137 37zM424 4
q-30 -12 -52 -37t-22 -63q0 -57 65 -84t210 -27q151 0 213 27q61 27 61 88q0 54 -36 76q-35 22 -113 22z" />
    <glyph glyph-name="h" unicode="h" horiz-adv-x="1312" 
d="M1024 1041q90 -48 144 -141q55 -95 55 -224v-676h-334v575q0 261 -227 261q-109 0 -174 -74q-64 -73 -64 -207v-555h-334v1434h334v-703h12q16 110 74 192q56 80 141 124q83 43 178 43q103 0 195 -49z" />
    <glyph glyph-name="i" unicode="i" horiz-adv-x="567" 
d="M147 1242q-57 57 -57 132q0 77 57 134t136 57q76 0 134 -56q56 -55 56 -135t-55 -134q-56 -54 -135 -54q-80 0 -136 56zM117 0v1057h334v-1057h-334z" />
    <glyph glyph-name="j" unicode="j" horiz-adv-x="641" 
d="M221 1242q-57 57 -57 132q0 77 57 134t135 57q76 0 134 -56q57 -55 57 -135t-55 -134q-56 -54 -136 -54q-79 0 -135 56zM-49 -137q44 -2 86 -2q71 0 101 10q31 10 42 35q10 23 10 76v1075h334v-1075q0 -147 -32 -221q-33 -76 -118 -110q-84 -34 -251 -34q-77 0 -172 6
v240z" />
    <glyph glyph-name="k" unicode="k" horiz-adv-x="1212" 
d="M90 0v1434h326v-457q0 -191 -8 -359l10 -6q51 76 99 129q74 81 138 146l31 28l143 142h379l-209 -209q-58 -58 -243 -225l2 -11l26 -2q100 -1 166 -57q65 -55 109 -164l151 -389h-342l-82 221q-29 84 -74 126q-47 44 -118 44h-55l-123 -123v-268h-326z" />
    <glyph glyph-name="l" unicode="l" horiz-adv-x="520" 
d="M90 0v1434h336v-1434h-336z" />
    <glyph glyph-name="m" unicode="m" horiz-adv-x="2029" 
d="M1756 1043q84 -48 133 -133q50 -88 50 -208v-702h-335v573q0 124 -54 193q-53 68 -151 68q-104 0 -161 -74q-56 -72 -56 -207v-553h-334v573q0 125 -54 193t-153 68q-93 0 -151 -61q-56 -59 -64 -173v-600h-336v1057h324l12 -326h10q16 112 74 195q57 82 138 123
q82 41 171 41q92 0 173 -42t132 -123q52 -83 58 -194h12q17 113 73 195q58 84 138 123q84 41 172 41q96 0 179 -47z" />
    <glyph glyph-name="n" unicode="n" horiz-adv-x="1312" 
d="M1024 1041q90 -48 144 -141q55 -95 55 -224v-676h-334v575q0 125 -60 193t-167 68q-113 0 -176 -74q-62 -72 -62 -207v-555h-334v1057h326l8 -326h12q16 110 74 192q56 80 141 124q83 43 178 43q103 0 195 -49z" />
    <glyph glyph-name="o" unicode="o" horiz-adv-x="1265" 
d="M334 36q-134 69 -210 197q-77 130 -77 299q0 167 77 294q76 126 210 195q133 69 299 69q165 0 299 -69t210 -195q77 -127 77 -294q0 -169 -77 -299q-76 -128 -210 -197t-299 -69t-299 69zM816 294q65 82 65 238q0 153 -65 233q-64 79 -183 79q-122 0 -186 -79t-64 -233
q0 -160 64 -239q65 -80 186 -80q119 0 183 81z" />
    <glyph glyph-name="p" unicode="p" horiz-adv-x="1312" 
d="M1054 1021q98 -68 155 -196q57 -127 57 -297t-57 -297t-155 -194q-100 -68 -227 -68q-133 0 -237 79t-154 243h-12v-668h-334v1434h324l10 -293h12q50 167 154 246q106 80 237 80q128 0 227 -69zM861 279q69 89 69 249q0 163 -69 251q-69 89 -185 89q-115 0 -183 -75
q-69 -77 -69 -199v-133q0 -119 69 -195t183 -76q116 0 185 89z" />
    <glyph glyph-name="q" unicode="q" horiz-adv-x="1312" 
d="M899 1057h324v-1434h-334v666h-12q-49 -163 -153 -243q-103 -79 -237 -79q-126 0 -227 68q-100 67 -157 193q-56 124 -56 296q0 174 56 299q57 128 157 195t227 67q135 0 237 -78q104 -80 153 -245h12zM820 263q69 75 69 196v133q0 120 -69 196t-183 76q-116 0 -185 -89
t-69 -251t69 -249t185 -87q114 0 183 75z" />
    <glyph glyph-name="r" unicode="r" horiz-adv-x="933" 
d="M436 649q24 164 70 255q46 90 135 130q91 41 254 41v-276q-175 -10 -272 -38q-94 -27 -144 -97q-49 -68 -55 -209v-455h-334v1057h326l8 -408h12z" />
    <glyph glyph-name="s" unicode="s" horiz-adv-x="1112" 
d="M169 66q-141 99 -142 284h323q4 -78 63 -120t167 -42q85 0 133 28q47 27 47 77q0 36 -32 60q-31 24 -112 42l-219 43q-169 30 -260 113q-90 83 -90 207q0 96 61 174q60 76 171 117q112 41 260 41q252 0 390 -100q136 -99 136 -288h-309q0 78 -53 122t-146 44
q-86 0 -134 -27t-48 -75q0 -74 129 -102l250 -52q333 -69 333 -307q0 -164 -133 -251q-134 -87 -381 -87q-263 0 -404 99z" />
    <glyph glyph-name="t" unicode="t" horiz-adv-x="858" 
d="M815 858h-301v-491q0 -51 12 -77q12 -25 44 -37q29 -11 96 -11q70 0 147 6v-248q-151 -14 -246 -14q-200 1 -294 71q-93 69 -93 248v553h-157v199h157v276h316l10 -276h309v-199z" />
    <glyph glyph-name="u" unicode="u" horiz-adv-x="1312" 
d="M887 1057h336v-1057h-326l-10 326h-13q-15 -113 -71 -192q-56 -80 -141 -124q-83 -43 -179 -43q-104 0 -194 48q-91 48 -145 142q-54 93 -54 224v676h334v-576q0 -260 227 -260q109 0 172 74q64 75 64 207v555z" />
    <glyph glyph-name="v" unicode="v" horiz-adv-x="1159" 
d="M379 0l-377 1057h358l74 -238l62 -211q22 -73 84 -293h12q57 198 90 303l59 201l74 238h342l-377 -1057h-401z" />
    <glyph glyph-name="w" unicode="w" horiz-adv-x="1781" 
d="M354 0l-352 1057h358l60 -197l31 -106q67 -228 102 -375h10q32 129 103 403l20 78l53 197h303l56 -197q75 -289 121 -481h12q26 108 49 189q23 85 39 143q26 87 43 149l61 197h357l-350 -1057h-351l-182 659h-12l-180 -659h-351z" />
    <glyph glyph-name="x" unicode="x" horiz-adv-x="1146" 
d="M2 0l385 541l-364 516h378l33 -45q56 -88 137 -226h13q65 118 139 230l31 41h372l-366 -512l385 -545h-379l-43 66q-84 128 -145 235h-13q-60 -101 -147 -235l-45 -66h-371z" />
    <glyph glyph-name="y" unicode="y" horiz-adv-x="1157" 
d="M590 281q92 353 153 555l66 221h346l-391 -1088q-50 -143 -124 -226q-72 -81 -174 -114q-99 -32 -247 -32q-39 0 -170 8v250q79 -7 115 -7q84 0 128 25q40 23 68 88l19 43l-377 1053h358l68 -228q105 -360 152 -548h10z" />
    <glyph glyph-name="z" unicode="z" horiz-adv-x="1118" 
d="M55 0v174l555 639l-4 10q-117 -12 -334 -12h-182v246h944v-201l-514 -610l6 -13q166 13 310 13h225v-246h-1006z" />
    <glyph glyph-name="braceleft" unicode="{" horiz-adv-x="792" 
d="M621 -387q-198 0 -297 93t-99 284v344q0 70 -41 97t-127 32v276q87 5 127 34q41 30 41 95v344q0 191 99 284t297 93h147v-272h-100q-78 0 -107 -30q-29 -31 -29 -107v-385q0 -93 -55 -138q-55 -44 -170 -49v-14q115 -5 170 -48t55 -136v-390q0 -77 30 -107t106 -30h100
v-270h-147z" />
    <glyph glyph-name="bar" unicode="|" horiz-adv-x="491" 
d="M383 -414h-274v2046h274v-2046z" />
    <glyph glyph-name="braceright" unicode="}" horiz-adv-x="792" 
d="M25 -387v270h98q77 0 107 30t30 107v390q0 93 55 136t170 48v14q-115 5 -170 49q-55 45 -55 138v385q0 77 -30 107t-107 30h-98v272h147q395 0 395 -377v-344q0 -65 41 -95q40 -29 127 -34v-276q-86 -5 -127 -32t-41 -97v-344q0 -377 -395 -377h-147z" />
    <glyph glyph-name="asciitilde" unicode="~" horiz-adv-x="1079" 
d="M623 561q-47 17 -115 49q-30 14 -70 30q-33 13 -57 13q-49 0 -70 -25q-20 -25 -28 -83h-226q1 168 76 271q73 102 217 102q48 0 107 -19q52 -17 129 -53q16 -6 52 -22q38 -17 60 -17q46 0 68 27q24 29 31 81h225q-1 -168 -76 -271q-73 -101 -219 -101q-53 0 -104 18z" />
    <glyph glyph-name="exclamdown" unicode="&#xa1;" horiz-adv-x="552" 
d="M427 1160q58 -58 58 -148q0 -89 -59 -147t-147 -58q-92 0 -151 58q-60 59 -60 147q0 87 60 147t151 60q89 0 148 -59zM459 -248h-363l60 938h243z" />
    <glyph glyph-name="cent" unicode="&#xa2;" horiz-adv-x="1165" 
d="M670 219q133 33 139 225h330q-7 -211 -140 -334q-132 -123 -329 -141v-207h-131v207q-219 21 -355 162q-137 142 -137 406q0 158 64 278q63 118 174 187q109 68 254 83v201h131v-199q208 -17 334 -140q128 -125 135 -326h-330q-2 93 -39 145q-38 54 -100 70v-617z
M539 223v611q-76 -22 -114 -98t-38 -195q0 -271 152 -318z" />
    <glyph glyph-name="sterling" unicode="&#xa3;" horiz-adv-x="1212" 
d="M502 276h676v-276h-1149v276h110v310h-110v198h110v236q0 220 142 335q140 113 383 113q245 0 374 -120q132 -123 138 -357h-338q-2 107 -44 154t-124 47q-86 0 -127 -45q-41 -46 -41 -148v-215h487v-198h-487v-310z" />
    <glyph glyph-name="currency" unicode="&#xa4;" horiz-adv-x="1150" 
d="M973 416l145 -148l-94 -96l-152 152q-130 -88 -292 -88q-166 0 -297 92l-154 -156l-94 96l149 152q-106 133 -106 307q0 176 106 309l-149 154l94 94l154 -156q133 93 297 93q161 0 294 -88l150 151l94 -94l-145 -148q110 -132 110 -315q0 -182 -110 -311zM746 563
q65 63 65 164t-65 164t-166 63q-98 0 -163 -63t-65 -164t65 -164q64 -63 163 -63q102 0 166 63z" />
    <glyph glyph-name="yen" unicode="&#xa5;" horiz-adv-x="1423" 
d="M1421 1434l-465 -766h226v-136h-285v-143h285v-135h-285v-254h-365v254h-288v135h288v143h-288v136h229l-471 766h408l92 -158q152 -260 213 -387h14q72 149 211 395l86 150h395z" />
    <glyph glyph-name="brokenbar" unicode="&#xa6;" horiz-adv-x="491" 
d="M383 815h-274v817h274v-817zM383 -418h-274v817h274v-817z" />
    <glyph glyph-name="section" unicode="&#xa7;" horiz-adv-x="1251" 
d="M275 -296q-130 102 -130 286h312q0 -88 45 -130t121 -42q71 0 107 27t36 71q0 45 -27 75q-26 28 -82 62l-288 166q-161 94 -247 183q-85 88 -85 206q0 55 31 109q30 52 97 87q64 34 169 32l4 10q-77 52 -129 128q-51 75 -51 161q0 164 130 246q131 83 357 83
q209 0 335 -101q128 -102 128 -286h-311q0 88 -45 130t-121 42q-71 0 -109 -27q-37 -27 -37 -71q0 -45 28 -76t83 -61l289 -168q171 -101 250 -177q82 -79 82 -188q0 -105 -74 -181q-73 -75 -223 -69l-7 -10q181 -125 181 -291q0 -156 -124 -241q-125 -86 -345 -86
q-221 0 -350 101zM857 372q32 38 32 81q0 40 -25 71q-24 30 -92 68l-219 127l-66 37q-56 -22 -90 -61q-32 -36 -32 -81q0 -38 24 -70q25 -32 90 -71l209 -117l80 -45q56 22 89 61z" />
    <glyph glyph-name="dieresis" unicode="&#xa8;" horiz-adv-x="796" 
d="M499 1235q-48 47 -48 113q0 65 48 113t113 48q70 0 116 -46t46 -115q0 -68 -46 -114t-116 -46q-64 0 -113 47zM70 1233q-47 47 -47 113q0 64 47 113q46 48 114 48t114 -46t46 -115q0 -68 -46 -114t-114 -46q-67 0 -114 47z" />
    <glyph glyph-name="copyright" unicode="&#xa9;" horiz-adv-x="1634" 
d="M426 68q-176 101 -278 273q-101 171 -101 378q0 210 101 381t278 271q176 99 389 99q218 0 393 -100q177 -101 278 -272t101 -379t-102 -380t-280 -272q-179 -100 -390 -100q-213 0 -389 101zM1089 258q120 68 192 192q71 122 71 269q0 148 -70 271q-70 124 -192 192
q-123 69 -273 69q-152 0 -273 -70q-122 -71 -191 -194q-68 -121 -68 -268q0 -145 69 -267t192 -193q122 -71 271 -71t272 70zM532 1018q112 106 291 106q168 0 273 -90q104 -89 110 -248h-235q-1 82 -42 123t-108 41q-79 0 -119 -58q-41 -59 -41 -163q0 -123 42 -181
q42 -59 118 -59q145 0 150 168h235q-6 -167 -114 -255q-109 -89 -269 -89q-173 0 -288 103t-115 309q0 187 112 293z" />
    <glyph glyph-name="ordfeminine" unicode="&#xaa;" horiz-adv-x="1071" 
d="M129 954q91 72 279 70q165 -1 228 30q62 31 62 91q0 50 -40 84q-41 35 -123 35q-92 0 -144 -49q-51 -48 -59 -134h-283q11 172 130 282q121 112 349 112q224 0 339 -101q114 -100 114 -258v-577h-274l-9 276h-10q-16 -141 -106 -223q-89 -82 -238 -82q-136 0 -221 63
q-86 63 -86 189q0 120 92 192zM358 713q34 -25 91 -25q62 0 121 32t94 85q34 52 34 115v141h-10q-12 -91 -67 -131q-56 -41 -195 -53q-48 -5 -74 -28t-26 -67q0 -46 32 -69z" />
    <glyph glyph-name="guillemotleft" unicode="&#xab;" horiz-adv-x="987" 
d="M260 537q36 -21 95 -60q36 -24 77 -59l25 -19v-307l-348 285v328l348 284v-307l-27 -20q-94 -76 -170 -115v-10zM682 537q36 -21 95 -60q36 -24 77 -59l25 -19v-307l-349 285v328l349 284v-307l-27 -20q-94 -76 -170 -115v-10z" />
    <glyph glyph-name="logicalnot" unicode="&#xac;" horiz-adv-x="1099" 
d="M57 655v277h985v-615h-305v338h-680z" />
    <glyph glyph-name="uni00AD" unicode="&#xad;" horiz-adv-x="757" 
d="M700 436h-643v277h643v-277z" />
    <glyph glyph-name="registered" unicode="&#xae;" horiz-adv-x="1146" 
d="M302 493q-126 70 -197 188q-72 120 -72 265q0 146 72 268q72 121 197 189q124 67 271 67q154 0 277 -69q121 -68 193 -190q71 -121 71 -265q0 -143 -72 -263q-73 -121 -195 -189q-126 -70 -274 -70q-147 0 -271 69zM783 595q97 54 150 144q54 91 54 207q0 118 -55 210
q-56 93 -150 144q-96 52 -209 52t-208 -53t-149 -144t-54 -209q0 -114 54 -205q55 -93 149 -145q95 -53 208 -53q116 0 210 52zM360 686v531h271q83 0 129 -35q45 -34 45 -101q0 -59 -37 -93q-38 -35 -106 -36v-6q68 -2 95 -24q29 -24 36 -70l26 -166h-149l-17 113
q-5 35 -20 46t-55 11h-72v-170h-146zM582 965q38 0 56 17q19 18 19 50q0 64 -75 64h-76v-131h76z" />
    <glyph glyph-name="macron" unicode="&#xaf;" horiz-adv-x="731" 
d="M731 1186h-731v217h731v-217z" />
    <glyph glyph-name="degree" unicode="&#xb0;" horiz-adv-x="727" 
d="M126 955q-93 83 -93 214t93 214q94 83 239 83t237 -83t92 -214t-92 -214t-237 -83t-239 83zM458 1090q36 30 36 79q0 48 -36 78q-37 31 -93 31q-57 0 -94 -31q-35 -29 -35 -78q0 -50 35 -79q37 -31 94 -31q56 0 93 31z" />
    <glyph glyph-name="plusminus" unicode="&#xb1;" horiz-adv-x="1120" 
d="M713 1223v-271h350v-278h-350v-271h-305v271h-351v278h351v271h305zM1063 0h-1006v281h1006v-281z" />
    <glyph glyph-name="uni00B2" unicode="&#xb2;" horiz-adv-x="745" 
d="M29 1270l127 86q130 86 195 135q65 50 102 97q36 46 36 100q0 51 -29 76q-31 26 -79 26q-55 0 -89 -33q-35 -33 -36 -92h-215q1 142 97 218q95 75 253 75q140 0 230 -69t90 -197q0 -84 -40 -143t-108 -109q-57 -42 -203 -131q-25 -17 -28 -19q-7 -4 -27 -16l4 -10
q66 10 193 10h198v-184h-671v180z" />
    <glyph glyph-name="uni00B3" unicode="&#xb3;" horiz-adv-x="772" 
d="M543 1542q87 -6 147 -61t60 -144q0 -129 -93 -201q-92 -71 -260 -71q-161 0 -264 74q-102 74 -104 233h215q-1 -72 37 -107.5t116 -35.5q61 0 91 29q32 30 32 79q0 109 -125 109h-73v153h84q108 0 108 91q0 42 -32 68t-83 26q-60 0 -95 -29q-34 -28 -36 -98h-215
q1 165 103 229t256 64q143 0 229 -65t86 -169q0 -72 -49 -118q-50 -46 -135 -48v-8z" />
    <glyph glyph-name="acute" unicode="&#xb4;" horiz-adv-x="733" 
d="M733 1430l-663 -246l-70 182l649 268z" />
    <glyph glyph-name="uni00B5" unicode="&#xb5;" horiz-adv-x="1425" 
d="M90 -377v1434h334v-582q0 -117 62 -185q63 -69 188 -69q128 0 188 62q60 61 60 194v580h333v-754q0 -35 15 -51t47 -16q42 0 88 2v-240l-51 -2q-76 -6 -131 -6q-143 0 -219 57t-82 199v53h-13q-23 -164 -85 -246q-63 -82 -208 -82q-111 0 -180 60l-12 -6l-18 -402h-316z
" />
    <glyph glyph-name="paragraph" unicode="&#xb6;" horiz-adv-x="1247" 
d="M500 719q-206 1 -330 91q-123 88 -123 261q0 180 118 271q119 92 345 92h629v-1434h-252v1200h-135v-1200h-252v719z" />
    <glyph glyph-name="periodcentered" unicode="&#xb7;" horiz-adv-x="552" 
d="M128 584q-60 60 -60 147q0 89 60 147q59 58 151 58q88 0 147 -58t59 -147q0 -88 -58 -147q-59 -60 -148 -60q-91 0 -151 60z" />
    <glyph glyph-name="cedilla" unicode="&#xb8;" horiz-adv-x="819" 
d="M426 -100q95 0 156 -43t61 -113q0 -96 -83 -144q-84 -49 -230 -49q-57 0 -152 5v120q52 -2 123 -2q53 0 85 21t32 53q0 70 -117 70q-29 0 -51 -2v82q84 30 84 102h147q0 -31 -22 -54q-21 -23 -58 -34v-12h25z" />
    <glyph glyph-name="uni00B9" unicode="&#xb9;" horiz-adv-x="512" 
d="M229 1686q-29 -50 -68 -72q-41 -23 -116 -23h-14v197q110 0 175 38q64 37 79 109h176v-845h-223v596h-9z" />
    <glyph glyph-name="ordmasculine" unicode="&#xba;" horiz-adv-x="1101" 
d="M295 569q-116 61 -181 170q-67 113 -67 258q0 142 67 252q66 107 181 168q114 60 256 60t256 -60q115 -61 181 -168q67 -110 67 -252q0 -145 -67 -258q-65 -109 -181 -170q-112 -59 -256 -59t-256 59zM709 791q55 68 55 206q0 135 -55 200q-56 67 -158 67t-158 -67
q-55 -65 -55 -200q0 -138 55 -206q56 -70 158 -70t158 70z" />
    <glyph glyph-name="guillemotright" unicode="&#xbb;" horiz-adv-x="987" 
d="M727 547q-76 39 -170 115l-27 20v307l349 -284v-328l-349 -285v307l25 19q41 35 77 59q59 39 95 60v10zM305 547q-76 39 -170 115l-26 20v307l348 -284v-328l-348 -285v307l24 19q41 35 77 59q59 39 95 60v10z" />
    <glyph glyph-name="onequarter" unicode="&#xbc;" horiz-adv-x="1503" 
d="M229 1184q-29 -50 -68 -72q-40 -22 -116 -22h-14v196q110 0 175 38q64 37 79 110h176v-846h-223v596h-9zM424 0h-199l766 1434h199zM1362 0h-225v172h-406v211l385 465h244v-510h113v-166h-111v-172zM901 338h244v321h-10q-17 -43 -51 -90q-49 -67 -93 -120z" />
    <glyph glyph-name="onehalf" unicode="&#xbd;" horiz-adv-x="1587" 
d="M229 1184q-29 -50 -68 -72q-40 -22 -116 -22h-14v196q110 0 175 38q64 37 79 110h176v-846h-223v596h-9zM436 0h-198l766 1434h198zM877 180l127 86q130 86 195 135q61 47 101 98q37 47 37 99t-29 77t-79 25q-56 0 -89 -32q-34 -33 -36 -93h-215q1 143 97 219
q93 74 253 74q140 0 229 -68q91 -70 91 -198q0 -83 -40 -142q-41 -61 -108 -110q-57 -42 -203 -131q-20 -14 -28 -18q-4 -2 -9 -5t-10 -6.5t-8 -5.5l4 -10q66 10 193 10h198v-184h-671v180z" />
    <glyph glyph-name="threequarters" unicode="&#xbe;" horiz-adv-x="1746" 
d="M543 1049q86 -6 147 -62q60 -55 60 -143q0 -130 -93 -202q-92 -71 -260 -71q-161 0 -264 74q-102 74 -104 234h215q-1 -72 37 -108t116 -36q59 0 91 30t32 79q0 108 -125 108h-73v154h84q108 0 108 90q0 43 -32 69q-31 25 -83 25q-61 0 -95 -28t-36 -99h-215
q1 166 103 230q100 63 256 63q144 0 229 -64q86 -65 86 -169q0 -72 -49 -118q-50 -47 -135 -48v-8zM649 0h-198l766 1434h198zM1606 0h-226v172h-405v211l385 465h244v-510h112v-166h-110v-172zM1145 338h244v321h-11q-18 -46 -50 -90q-49 -67 -93 -120z" />
    <glyph glyph-name="questiondown" unicode="&#xbf;" horiz-adv-x="1132" 
d="M736 1153q61 -61 61 -147q0 -88 -61 -147q-59 -58 -150 -58t-150 58t-59 147q0 88 59 147t150 59t150 -59zM745 702q0 -115 -14 -174q-15 -64 -56 -112q-43 -50 -130 -105q-75 -49 -109 -87q-32 -37 -37 -93q0 -71 43 -108t125 -37q106 0 150 50q43 50 45 171h336
q0 -260 -139 -379t-404 -119q-227 0 -372 101q-144 100 -144 284q0 207 211 352q77 53 115 86q32 28 46 66t15 104h319z" />
    <glyph glyph-name="Agrave" unicode="&#xc0;" horiz-adv-x="1509" 
d="M1511 0h-383l-104 313h-553l-102 -313h-371l524 1434h449zM559 582h375l-72 211q-68 211 -108 358h-17q-45 -169 -108 -360zM999 1743l-71 -182l-662 245l84 205z" />
    <glyph glyph-name="Aacute" unicode="&#xc1;" horiz-adv-x="1509" 
d="M1511 0h-383l-104 313h-553l-102 -313h-371l524 1434h449zM559 582h375l-72 211q-68 211 -108 358h-17q-45 -169 -108 -360zM1225 1806l-664 -245l-69 182l649 268z" />
    <glyph glyph-name="Acircumflex" unicode="&#xc2;" horiz-adv-x="1509" 
d="M1511 0h-383l-104 313h-553l-102 -313h-371l524 1434h449zM559 582h375l-72 211q-68 211 -108 358h-17q-45 -169 -108 -360zM352 1563l234 295h315l234 -295h-261l-51 55q-46 46 -71 82h-13q-25 -36 -69 -80l-56 -57h-262z" />
    <glyph glyph-name="Atilde" unicode="&#xc3;" horiz-adv-x="1509" 
d="M1511 0h-383l-104 313h-553l-102 -313h-371l524 1434h449zM559 582h375l-72 211q-68 211 -108 358h-17q-45 -169 -108 -360zM352 1563q0 140 57 212t162 72q82 0 181 -39q78 -30 118 -30q28 0 43 16q16 17 17 55h203q0 -139 -57 -210q-57 -70 -163 -70q-78 0 -182 37
q-78 30 -119 30q-58 0 -59 -73h-201z" />
    <glyph glyph-name="Adieresis" unicode="&#xc4;" horiz-adv-x="1509" 
d="M1511 0h-383l-104 313h-553l-102 -313h-371l524 1434h449zM559 582h375l-72 211q-68 211 -108 358h-17q-45 -169 -108 -360zM848 1612q-47 47 -47 112t47 114q46 48 115 48q67 0 113 -46t46 -116q0 -67 -46 -113t-113 -46q-68 0 -115 47zM418 1610q-47 47 -47 112t47 114
q46 48 114 48q69 0 115 -46q47 -47 47 -116q0 -66 -47 -113q-46 -46 -115 -46q-67 0 -114 47z" />
    <glyph glyph-name="Aring" unicode="&#xc5;" horiz-adv-x="1509" 
d="M1128 0l-104 313h-553l-102 -313h-371l494 1350q-66 76 -66 182q0 127 89 204q88 76 233 76q144 0 231 -77q88 -78 88 -203q0 -110 -66 -182l510 -1350h-383zM662 1602q-33 -27 -33 -70q0 -45 33 -72q32 -26 86 -26t87 26t33 72q0 44 -33 70t-87 26t-86 -26zM559 582h375
l-72 211q-68 211 -108 358h-17q-45 -169 -108 -360z" />
    <glyph glyph-name="AE" unicode="&#xc6;" horiz-adv-x="2158" 
d="M1284 602l123 -326h741v-276h-1020l-104 313h-553l-102 -313h-371l524 1434h1288v-277h-735l107 -285h762v-270h-660zM559 582h375l-72 211q-68 211 -108 358h-17q-45 -169 -108 -360z" />
    <glyph glyph-name="Ccedilla" unicode="&#xc7;" horiz-adv-x="1511" 
d="M1001 332q87 87 99 235h366q-17 -265 -181 -423t-445 -175q-17 -42 -74 -57v-12h25q94 0 155 -43q62 -44 62 -113q0 -96 -82 -144q-84 -49 -230 -49q-58 0 -153 5v120q52 -2 123 -2q53 0 85 20q31 19 31 54q0 70 -116 70q-30 0 -52 -2v82q67 22 82 71q-305 23 -477 220
t-172 528q0 232 87 402q87 169 251 258t389 89q205 0 358 -72q151 -71 238 -208q85 -135 96 -322h-366q-15 153 -102 238q-88 86 -228 86q-164 0 -255 -124t-91 -347q0 -221 93 -346t257 -125q141 0 227 86z" />
    <glyph glyph-name="Egrave" unicode="&#xc8;" horiz-adv-x="1284" 
d="M1231 1434v-277h-760v-285h680v-270h-680v-326h760v-276h-1122v1434h1122zM924 1743l-72 -182l-662 245l84 205z" />
    <glyph glyph-name="Eacute" unicode="&#xc9;" horiz-adv-x="1284" 
d="M1231 1434v-277h-760v-285h680v-270h-680v-326h760v-276h-1122v1434h1122zM1149 1806l-664 -245l-69 182l649 268z" />
    <glyph glyph-name="Ecircumflex" unicode="&#xca;" horiz-adv-x="1284" 
d="M1231 1434v-277h-760v-285h680v-270h-680v-326h760v-276h-1122v1434h1122zM276 1563l234 295h315l234 -295h-260l-51 55q-49 49 -72 82h-12q-23 -33 -70 -80l-55 -57h-263z" />
    <glyph glyph-name="Edieresis" unicode="&#xcb;" horiz-adv-x="1284" 
d="M1231 1434v-277h-760v-285h680v-270h-680v-326h760v-276h-1122v1434h1122zM770 1612q-47 47 -47 112t47 114q47 48 115 48q67 0 113 -46t46 -116q0 -67 -46 -113t-113 -46q-68 0 -115 47zM340 1610q-47 47 -47 112t47 114q47 48 115 48t114 -46q47 -47 47 -116
q0 -66 -47 -113q-46 -46 -114 -46t-115 47z" />
    <glyph glyph-name="Igrave" unicode="&#xcc;" horiz-adv-x="579" 
d="M109 0v1434h362v-1434h-362zM543 1743l-72 -182l-661 245l84 205z" />
    <glyph glyph-name="Iacute" unicode="&#xcd;" horiz-adv-x="579" 
d="M109 0v1434h362v-1434h-362zM768 1806l-664 -245l-69 182l649 268z" />
    <glyph glyph-name="Icircumflex" unicode="&#xce;" horiz-adv-x="579" 
d="M109 0v1434h362v-1434h-362zM-104 1563l233 295h315l234 -295h-260l-51 55q-49 49 -72 82h-12q-23 -33 -70 -80l-55 -57h-262z" />
    <glyph glyph-name="Idieresis" unicode="&#xcf;" horiz-adv-x="579" 
d="M109 0v1434h362v-1434h-362zM391 1612q-47 47 -47 112t47 114q46 48 115 48q68 0 114 -46t46 -116q0 -67 -46 -113t-114 -46t-115 47zM-39 1610q-47 47 -47 112t47 114q47 48 115 48t114 -46q48 -48 48 -116q0 -65 -48 -113q-46 -46 -114 -46t-115 47z" />
    <glyph glyph-name="Eth" unicode="&#xd0;" horiz-adv-x="1544" 
d="M1132 1357q166 -76 266 -238q99 -161 99 -402q0 -373 -207 -545q-206 -172 -534 -172h-606v682h-150v135h150v617h606q208 0 376 -77zM741 276q170 0 277 110q106 109 106 331q0 231 -106 336q-105 104 -279 104h-227v-340h305v-135h-305v-406h229z" />
    <glyph glyph-name="Ntilde" unicode="&#xd1;" horiz-adv-x="1538" 
d="M453 971q4 -153 4 -473v-498h-348v1434h393l342 -557q123 -198 221 -375l16 4q-6 156 -6 426v502h355v-1434h-381l-328 543l-41 69q-121 201 -211 363zM401 1563q0 140 57 212t163 72q81 0 180 -39q78 -30 119 -30q28 0 43 16q14 16 16 55h203q0 -139 -57 -210
q-57 -70 -162 -70q-79 0 -183 37q-78 30 -118 30q-59 0 -60 -73h-201z" />
    <glyph glyph-name="Ograve" unicode="&#xd2;" horiz-adv-x="1572" 
d="M394 59q-168 91 -257 259q-90 170 -90 399q0 231 90 400q89 168 257 259q166 90 392 90t393 -90q168 -91 257 -259q90 -169 90 -400t-89 -400q-88 -167 -256 -258q-166 -90 -395 -90q-225 0 -392 90zM1056 362q95 118 95 355q0 233 -95 352t-270 119q-174 0 -268 -118
t-94 -353q0 -239 94 -355t268 -116q176 0 270 116zM1047 1743l-72 -182l-662 245l84 205z" />
    <glyph glyph-name="Oacute" unicode="&#xd3;" horiz-adv-x="1572" 
d="M394 59q-168 91 -257 259q-90 170 -90 399q0 231 90 400q89 168 257 259q166 90 392 90t393 -90q168 -91 257 -259q90 -169 90 -400t-89 -400q-88 -167 -256 -258q-166 -90 -395 -90q-225 0 -392 90zM1056 362q95 118 95 355q0 233 -95 352t-270 119q-174 0 -268 -118
t-94 -353q0 -239 94 -355t268 -116q176 0 270 116zM1270 1806l-664 -245l-69 182l649 268z" />
    <glyph glyph-name="Ocircumflex" unicode="&#xd4;" horiz-adv-x="1572" 
d="M394 59q-168 91 -257 259q-90 170 -90 399q0 231 90 400q89 168 257 259q166 90 392 90t393 -90q168 -91 257 -259q90 -169 90 -400t-89 -400q-88 -167 -256 -258q-166 -90 -395 -90q-225 0 -392 90zM1056 362q95 118 95 355q0 233 -95 352t-270 119q-174 0 -268 -118
t-94 -353q0 -239 94 -355t268 -116q176 0 270 116zM399 1563l234 295h315l234 -295h-260l-52 55q-46 46 -71 82h-13q-25 -36 -69 -80l-55 -57h-263z" />
    <glyph glyph-name="Otilde" unicode="&#xd5;" horiz-adv-x="1572" 
d="M394 59q-168 91 -257 259q-90 170 -90 399q0 231 90 400q89 168 257 259q166 90 392 90t393 -90q168 -91 257 -259q90 -169 90 -400t-89 -400q-88 -167 -256 -258q-166 -90 -395 -90q-225 0 -392 90zM1056 362q95 118 95 355q0 233 -95 352t-270 119q-174 0 -268 -118
t-94 -353q0 -239 94 -355t268 -116q176 0 270 116zM397 1563q0 140 57 212t162 72q82 0 181 -39q78 -30 118 -30q28 0 43 16q16 17 17 55h203q0 -139 -57 -210q-57 -70 -163 -70q-78 0 -182 37q-78 30 -119 30q-58 0 -59 -73h-201z" />
    <glyph glyph-name="Odieresis" unicode="&#xd6;" horiz-adv-x="1572" 
d="M394 59q-168 91 -257 259q-90 170 -90 399q0 231 90 400q89 168 257 259q166 90 392 90t393 -90q168 -91 257 -259q90 -169 90 -400t-89 -400q-88 -167 -256 -258q-166 -90 -395 -90q-225 0 -392 90zM1056 362q95 118 95 355q0 233 -95 352t-270 119q-174 0 -268 -118
t-94 -353q0 -239 94 -355t268 -116q176 0 270 116zM893 1612q-47 47 -47 112t47 114q47 48 115 48q67 0 113 -46t46 -116q0 -67 -46 -113t-113 -46q-68 0 -115 47zM463 1610q-47 47 -47 112t47 114q47 48 115 48t114 -46q47 -47 47 -116q0 -66 -47 -113q-46 -46 -114 -46
t-115 47z" />
    <glyph glyph-name="multiply" unicode="&#xd7;" horiz-adv-x="1079" 
d="M807 1194l199 -197l-267 -264l267 -266l-199 -199l-266 267l-269 -267l-196 199l266 266l-266 264l196 197l269 -266z" />
    <glyph glyph-name="Oslash" unicode="&#xd8;" horiz-adv-x="1617" 
d="M1571 1419l-176 -188q166 -197 166 -512q0 -227 -91 -398q-90 -170 -257 -260t-392 -90q-282 0 -473 140l-194 -209l-107 98l197 211q-81 96 -122 223q-42 129 -42 285q0 231 90 400t258 259t393 90q279 0 469 -139l176 189zM492 475l577 619q-90 96 -248 96
q-175 0 -269 -118q-95 -119 -95 -353q0 -142 35 -244zM1147 965l-580 -619q91 -98 254 -98q175 0 269 117q94 116 94 354q0 148 -37 246z" />
    <glyph glyph-name="Ugrave" unicode="&#xd9;" horiz-adv-x="1472" 
d="M88 1434h363v-879q0 -305 284 -305q148 0 218 76q71 77 71 229v879h360v-904q0 -285 -178 -424t-471 -139q-179 0 -328 61q-148 60 -233 189q-86 130 -86 326v891zM995 1747l-71 -182l-662 245l84 205z" />
    <glyph glyph-name="Uacute" unicode="&#xda;" horiz-adv-x="1472" 
d="M88 1434h363v-879q0 -305 284 -305q148 0 218 76q71 77 71 229v879h360v-904q0 -285 -178 -424t-471 -139q-179 0 -328 61q-148 60 -233 189q-86 130 -86 326v891zM1221 1810l-664 -245l-70 182l650 268z" />
    <glyph glyph-name="Ucircumflex" unicode="&#xdb;" horiz-adv-x="1472" 
d="M88 1434h363v-879q0 -305 284 -305q148 0 218 76q71 77 71 229v879h360v-904q0 -285 -178 -424t-471 -139q-179 0 -328 61q-148 60 -233 189q-86 130 -86 326v891zM348 1567l234 295h315l233 -295h-260l-51 55q-46 46 -71 82h-13q-25 -36 -69 -80l-56 -57h-262z" />
    <glyph glyph-name="Udieresis" unicode="&#xdc;" horiz-adv-x="1472" 
d="M88 1434h363v-879q0 -305 284 -305q148 0 218 76q71 77 71 229v879h360v-904q0 -285 -178 -424t-471 -139q-179 0 -328 61q-148 60 -233 189q-86 130 -86 326v891zM842 1616q-47 47 -47 113q0 64 47 113q46 48 114 48t114 -46t46 -115q0 -68 -46 -114t-114 -46
q-67 0 -114 47zM412 1614q-47 47 -47 112t47 114q46 48 114 48q69 0 115 -46q47 -47 47 -116q0 -66 -47 -113q-46 -46 -115 -46q-67 0 -114 47z" />
    <glyph glyph-name="Yacute" unicode="&#xdd;" horiz-adv-x="1415" 
d="M1417 1434l-524 -865v-569h-365v569l-530 865h408l92 -158q152 -260 213 -387h14q72 149 211 395l86 150h395zM1196 1806l-664 -245l-69 182l649 268z" />
    <glyph glyph-name="Thorn" unicode="&#xde;" horiz-adv-x="1370" 
d="M768 1184q248 0 402 -110q153 -110 153 -345q0 -249 -153 -365q-153 -115 -402 -114l-297 2v-252h-362v1434h362v-250h297zM705 510q122 0 187 50q64 49 64 161q0 203 -251 203h-234v-414h234z" />
    <glyph glyph-name="germandbls" unicode="&#xdf;" horiz-adv-x="1249" 
d="M813 797q164 -11 277 -107q112 -96 112 -264q0 -221 -141 -329q-140 -107 -381 -107q-70 0 -125 6v252l88 -2q99 0 157 49t58 139t-58 139q-59 50 -153 50h-90v208h57q82 0 137 50q54 49 54 135q0 81 -50 131q-49 49 -134 49q-91 0 -144 -53t-53 -148v-995h-334v999
q0 157 76 263t200 158q126 53 267 53q124 0 233 -47t173 -129q65 -83 65 -191q0 -116 -78 -198q-77 -82 -213 -97v-14z" />
    <glyph glyph-name="agrave" unicode="&#xe0;" horiz-adv-x="1224" 
d="M144 484q108 82 325 81q196 -2 266 35q72 38 72 107q0 56 -47 97q-46 40 -146 40q-103 0 -164 -56q-62 -57 -69 -155h-330q15 200 154 328q139 129 405 129q261 0 392 -118q133 -119 133 -300v-672h-318l-10 322h-10q-21 -167 -127 -261t-277 -94q-157 0 -257 74
q-99 73 -99 219q0 142 107 224zM412 203q40 -29 106 -29q75 0 140 37q70 40 108 99q41 64 41 134v164h-10q-11 -69 -40 -112q-30 -44 -92 -69q-66 -27 -173 -34q-56 -5 -88 -32q-31 -27 -31 -76q0 -53 39 -82zM879 1366l-72 -182l-662 246l84 204z" />
    <glyph glyph-name="aacute" unicode="&#xe1;" horiz-adv-x="1224" 
d="M144 484q108 82 325 81q196 -2 266 35q72 38 72 107q0 56 -47 97q-46 40 -146 40q-103 0 -164 -56q-62 -57 -69 -155h-330q15 200 154 328q139 129 405 129q261 0 392 -118q133 -119 133 -300v-672h-318l-10 322h-10q-21 -167 -127 -261t-277 -94q-157 0 -257 74
q-99 73 -99 219q0 142 107 224zM412 203q40 -29 106 -29q75 0 140 37q70 40 108 99q41 64 41 134v164h-10q-11 -69 -40 -112q-30 -44 -92 -69q-66 -27 -173 -34q-56 -5 -88 -32q-31 -27 -31 -76q0 -53 39 -82zM1104 1430l-664 -246l-69 182l649 268z" />
    <glyph glyph-name="acircumflex" unicode="&#xe2;" horiz-adv-x="1224" 
d="M144 484q108 82 325 81q196 -2 266 35q72 38 72 107q0 56 -47 97q-46 40 -146 40q-103 0 -164 -56q-62 -57 -69 -155h-330q15 200 154 328q139 129 405 129q261 0 392 -118q133 -119 133 -300v-672h-318l-10 322h-10q-21 -167 -127 -261t-277 -94q-157 0 -257 74
q-99 73 -99 219q0 142 107 224zM412 203q40 -29 106 -29q75 0 140 37q70 40 108 99q41 64 41 134v164h-10q-11 -69 -40 -112q-30 -44 -92 -69q-66 -27 -173 -34q-56 -5 -88 -32q-31 -27 -31 -76q0 -53 39 -82zM231 1186l234 295h315l234 -295h-260l-52 55q-46 46 -71 82h-13
q-25 -36 -69 -80l-55 -57h-263z" />
    <glyph glyph-name="atilde" unicode="&#xe3;" horiz-adv-x="1224" 
d="M144 484q108 82 325 81q196 -2 266 35q72 38 72 107q0 56 -47 97q-46 40 -146 40q-103 0 -164 -56q-62 -57 -69 -155h-330q15 200 154 328q139 129 405 129q261 0 392 -118q133 -119 133 -300v-672h-318l-10 322h-10q-21 -167 -127 -261t-277 -94q-157 0 -257 74
q-99 73 -99 219q0 142 107 224zM412 203q40 -29 106 -29q75 0 140 37q70 40 108 99q41 64 41 134v164h-10q-11 -69 -40 -112q-30 -44 -92 -69q-66 -27 -173 -34q-56 -5 -88 -32q-31 -27 -31 -76q0 -53 39 -82zM233 1186q0 140 57 212t163 72q84 0 180 -38q81 -31 117 -31
q60 0 61 72h201q0 -139 -57 -210t-162 -71q-82 0 -181 37q-81 31 -118 31q-58 0 -60 -74h-201z" />
    <glyph glyph-name="adieresis" unicode="&#xe4;" horiz-adv-x="1224" 
d="M144 484q108 82 325 81q196 -2 266 35q72 38 72 107q0 56 -47 97q-46 40 -146 40q-103 0 -164 -56q-62 -57 -69 -155h-330q15 200 154 328q139 129 405 129q261 0 392 -118q133 -119 133 -300v-672h-318l-10 322h-10q-21 -167 -127 -261t-277 -94q-157 0 -257 74
q-99 73 -99 219q0 142 107 224zM412 203q40 -29 106 -29q75 0 140 37q70 40 108 99q41 64 41 134v164h-10q-11 -69 -40 -112q-30 -44 -92 -69q-66 -27 -173 -34q-56 -5 -88 -32q-31 -27 -31 -76q0 -53 39 -82zM725 1235q-47 47 -47 113q0 64 47 113q47 48 115 48
q67 0 113 -46t46 -115q0 -68 -46 -114t-113 -46q-68 0 -115 47zM295 1233q-47 47 -47 113q0 64 47 113q47 48 115 48t114 -46q47 -47 47 -115q0 -67 -47 -114q-46 -46 -114 -46t-115 47z" />
    <glyph glyph-name="aring" unicode="&#xe5;" horiz-adv-x="1224" 
d="M144 484q108 82 325 81q196 -2 266 35q72 38 72 107q0 56 -47 97q-46 40 -146 40q-103 0 -164 -56q-62 -57 -69 -155h-330q15 200 154 328q139 129 405 129q261 0 392 -118q133 -119 133 -300v-672h-318l-10 322h-10q-21 -167 -127 -261t-277 -94q-157 0 -257 74
q-99 73 -99 219q0 142 107 224zM412 203q40 -29 106 -29q75 0 140 37q70 40 108 99q41 64 41 134v164h-10q-11 -69 -40 -112q-30 -44 -92 -69q-66 -27 -173 -34q-56 -5 -88 -32q-31 -27 -31 -76q0 -53 39 -82zM392 1264q-89 78 -89 204q0 127 89 205t233 78q143 0 232 -78
t89 -205q0 -126 -89 -204t-232 -78q-144 0 -233 78zM713 1397q32 26 32 71q0 46 -32 72q-33 27 -88 27q-53 0 -86 -27t-33 -72q0 -44 33 -71t86 -27q55 0 88 27z" />
    <glyph glyph-name="ae" unicode="&#xe6;" horiz-adv-x="1984" 
d="M136 41q-99 73 -99 219q0 142 107 224q108 82 325 81q196 -2 266 35q72 38 72 107q0 56 -46 96q-47 41 -143 41q-111 0 -167 -53q-57 -53 -64 -158h-330q15 200 151 328q136 129 404 129q138 0 234 -36q97 -36 158 -118h12q68 84 158 119q91 35 210 35q167 0 292 -74
q124 -74 189 -198q64 -124 64 -273v-86h-790q1 -117 67 -181q67 -65 176 -65q110 0 172 43q64 44 82 111h283q-17 -135 -97 -224t-194 -133q-111 -43 -225 -43q-133 0 -242 38q-108 37 -182 110q-85 77 -129 207h-10q-29 -165 -151 -260t-296 -95q-157 0 -257 74zM1604 629
q-7 99 -72 158q-63 57 -160 57q-98 0 -162 -56t-71 -159h465zM658 211q70 40 108 99q41 64 41 134v164h-10q-11 -69 -40 -112q-30 -44 -92 -69q-66 -27 -173 -34q-56 -5 -88 -32q-31 -27 -31 -76q0 -51 39 -81t106 -30q75 0 140 37z" />
    <glyph glyph-name="ccedilla" unicode="&#xe7;" horiz-adv-x="1165" 
d="M756 270q48 56 53 174h330q-7 -211 -140 -334q-132 -123 -329 -141q-18 -40 -74 -57v-12h25q94 0 155 -43q62 -44 62 -113q0 -96 -82 -144q-84 -49 -230 -49q-58 0 -153 5v120q52 -2 123 -2q53 0 85 20q31 19 31 54q0 70 -116 70q-30 0 -52 -2v82q67 22 82 73
q-213 22 -346 163q-133 140 -133 403q0 171 73 297q71 123 201 190q128 66 287 66q234 0 378 -126q146 -127 153 -343h-330q-1 111 -56 167q-54 56 -147 56q-106 0 -163 -79q-56 -78 -56 -224q0 -328 219 -328q100 0 150 57z" />
    <glyph glyph-name="egrave" unicode="&#xe8;" horiz-adv-x="1208" 
d="M1153 459h-790q5 -114 76 -180q72 -66 188 -66q89 0 151 43q64 44 82 111h285q-17 -135 -98 -224q-82 -89 -195 -133q-111 -43 -225 -43q-269 0 -425 148q-155 147 -155 417q0 166 69 292q70 128 194 196q128 70 294 70q168 0 294 -73q122 -71 189 -197q66 -124 66 -275
v-86zM435 788q-65 -56 -72 -159h464q-7 100 -71 158q-63 57 -160 57q-96 0 -161 -56zM858 1366l-72 -182l-661 246l84 204z" />
    <glyph glyph-name="eacute" unicode="&#xe9;" horiz-adv-x="1208" 
d="M1153 459h-790q5 -114 76 -180q72 -66 188 -66q89 0 151 43q64 44 82 111h285q-17 -135 -98 -224q-82 -89 -195 -133q-111 -43 -225 -43q-269 0 -425 148q-155 147 -155 417q0 166 69 292q70 128 194 196q128 70 294 70q168 0 294 -73q122 -71 189 -197q66 -124 66 -275
v-86zM435 788q-65 -56 -72 -159h464q-7 100 -71 158q-63 57 -160 57q-96 0 -161 -56zM1083 1430l-663 -246l-70 182l649 268z" />
    <glyph glyph-name="ecircumflex" unicode="&#xea;" horiz-adv-x="1208" 
d="M1153 459h-790q5 -114 76 -180q72 -66 188 -66q89 0 151 43q64 44 82 111h285q-17 -135 -98 -224q-82 -89 -195 -133q-111 -43 -225 -43q-269 0 -425 148q-155 147 -155 417q0 166 69 292q70 128 194 196q128 70 294 70q168 0 294 -73q122 -71 189 -197q66 -124 66 -275
v-86zM435 788q-65 -56 -72 -159h464q-7 100 -71 158q-63 57 -160 57q-96 0 -161 -56zM211 1186l233 295h316l233 -295h-260l-51 55q-49 49 -72 82h-12q-23 -33 -70 -80l-55 -57h-262z" />
    <glyph glyph-name="edieresis" unicode="&#xeb;" horiz-adv-x="1208" 
d="M1153 459h-790q5 -114 76 -180q72 -66 188 -66q89 0 151 43q64 44 82 111h285q-17 -135 -98 -224q-82 -89 -195 -133q-111 -43 -225 -43q-269 0 -425 148q-155 147 -155 417q0 166 69 292q70 128 194 196q128 70 294 70q168 0 294 -73q122 -71 189 -197q66 -124 66 -275
v-86zM435 788q-65 -56 -72 -159h464q-7 100 -71 158q-63 57 -160 57q-96 0 -161 -56zM705 1235q-48 48 -48 113q0 63 48 113q47 48 114 48q68 0 114 -46t46 -115q0 -68 -46 -114t-114 -46q-67 0 -114 47zM274 1233q-47 47 -47 113q0 64 47 113q46 48 115 48t115 -46
q47 -47 47 -115q0 -67 -47 -114q-46 -46 -115 -46q-68 0 -115 47z" />
    <glyph glyph-name="igrave" unicode="&#xec;" horiz-adv-x="520" 
d="M90 0v1057h336v-1057h-336zM512 1366l-72 -182l-661 246l84 204z" />
    <glyph glyph-name="iacute" unicode="&#xed;" horiz-adv-x="520" 
d="M90 0v1057h336v-1057h-336zM737 1430l-663 -246l-70 182l649 268z" />
    <glyph glyph-name="icircumflex" unicode="&#xee;" horiz-adv-x="520" 
d="M90 0v1057h336v-1057h-336zM-135 1186l233 295h316l233 -295h-260l-51 55q-49 49 -72 82h-12q-23 -33 -70 -80l-55 -57h-262z" />
    <glyph glyph-name="idieresis" unicode="&#xef;" horiz-adv-x="520" 
d="M90 0v1057h336v-1057h-336zM358 1235q-47 47 -47 113q0 64 47 113q46 48 115 48q68 0 114 -46t46 -115q0 -68 -46 -114t-114 -46t-115 47zM-72 1233q-47 47 -47 113q0 64 47 113q47 48 115 48q69 0 115 -46q47 -47 47 -115q0 -67 -47 -114q-46 -46 -115 -46
q-68 0 -115 47z" />
    <glyph glyph-name="eth" unicode="&#xf0;" horiz-adv-x="1271" 
d="M1225 541q0 -190 -83 -320q-82 -128 -216 -191t-287 -63q-184 0 -318 74q-135 74 -204 196q-70 123 -70 265q0 155 58 272q59 119 162 185q105 67 237 67q123 0 223 -73q96 -70 147 -208l15 5q-15 80 -60 156q-49 83 -120 161q-49 55 -105 111l-323 -91v132l217 61
l-170 154h411q32 -28 72 -68l289 82v-131l-193 -53l25 -27q293 -326 293 -696zM824 293q65 80 65 227q0 152 -65 232q-64 79 -183 79q-125 0 -192 -80q-68 -82 -68 -231q0 -148 69 -227q69 -80 191 -80q118 0 183 80z" />
    <glyph glyph-name="ntilde" unicode="&#xf1;" horiz-adv-x="1312" 
d="M1024 1041q90 -48 144 -141q55 -95 55 -224v-676h-334v575q0 125 -60 193t-167 68q-113 0 -176 -74q-62 -72 -62 -207v-555h-334v1057h326l8 -326h12q16 110 74 192q56 80 141 124q83 43 178 43q103 0 195 -49zM270 1186q0 140 57 212t162 72q85 0 181 -38
q81 -31 118 -31q28 0 43 16q16 17 17 56h203q0 -139 -57 -210t-163 -71q-78 0 -182 37q-81 31 -119 31q-57 0 -59 -74h-201z" />
    <glyph glyph-name="ograve" unicode="&#xf2;" horiz-adv-x="1265" 
d="M334 36q-134 69 -210 197q-77 130 -77 299q0 167 77 294q76 126 210 195q133 69 299 69q165 0 299 -69t210 -195q77 -127 77 -294q0 -169 -77 -299q-76 -128 -210 -197t-299 -69t-299 69zM816 294q65 82 65 238q0 153 -65 233q-64 79 -183 79q-122 0 -186 -79t-64 -233
q0 -160 64 -239q65 -80 186 -80q119 0 183 81zM887 1366l-72 -182l-661 246l84 204z" />
    <glyph glyph-name="oacute" unicode="&#xf3;" horiz-adv-x="1265" 
d="M334 36q-134 69 -210 197q-77 130 -77 299q0 167 77 294q76 126 210 195q133 69 299 69q165 0 299 -69t210 -195q77 -127 77 -294q0 -169 -77 -299q-76 -128 -210 -197t-299 -69t-299 69zM816 294q65 82 65 238q0 153 -65 233q-64 79 -183 79q-122 0 -186 -79t-64 -233
q0 -160 64 -239q65 -80 186 -80q119 0 183 81zM1112 1430l-663 -246l-70 182l649 268z" />
    <glyph glyph-name="ocircumflex" unicode="&#xf4;" horiz-adv-x="1265" 
d="M334 36q-134 69 -210 197q-77 130 -77 299q0 167 77 294q76 126 210 195q133 69 299 69q165 0 299 -69t210 -195q77 -127 77 -294q0 -169 -77 -299q-76 -128 -210 -197t-299 -69t-299 69zM816 294q65 82 65 238q0 153 -65 233q-64 79 -183 79q-122 0 -186 -79t-64 -233
q0 -160 64 -239q65 -80 186 -80q119 0 183 81zM240 1186l233 295h315l234 -295h-260l-51 55q-49 49 -72 82h-12q-23 -33 -70 -80l-55 -57h-262z" />
    <glyph glyph-name="otilde" unicode="&#xf5;" horiz-adv-x="1265" 
d="M334 36q-134 69 -210 197q-77 130 -77 299q0 167 77 294q76 126 210 195q133 69 299 69q165 0 299 -69t210 -195q77 -127 77 -294q0 -169 -77 -299q-76 -128 -210 -197t-299 -69t-299 69zM816 294q65 82 65 238q0 153 -65 233q-64 79 -183 79q-122 0 -186 -79t-64 -233
q0 -160 64 -239q65 -80 186 -80q119 0 183 81zM240 1186q0 141 56 212q57 72 163 72q84 0 180 -38q81 -31 119 -31q28 0 43 16q14 16 16 56h203q0 -141 -56 -210q-57 -71 -163 -71q-79 0 -183 37q-81 31 -118 31q-58 0 -60 -74h-200z" />
    <glyph glyph-name="odieresis" unicode="&#xf6;" horiz-adv-x="1265" 
d="M334 36q-134 69 -210 197q-77 130 -77 299q0 167 77 294q76 126 210 195q133 69 299 69q165 0 299 -69t210 -195q77 -127 77 -294q0 -169 -77 -299q-76 -128 -210 -197t-299 -69t-299 69zM816 294q65 82 65 238q0 153 -65 233q-64 79 -183 79q-122 0 -186 -79t-64 -233
q0 -160 64 -239q65 -80 186 -80q119 0 183 81zM733 1235q-47 47 -47 113q0 64 47 113q47 48 115 48t114 -46t46 -115q0 -68 -46 -114t-114 -46t-115 47zM303 1233q-47 47 -47 113q0 64 47 113q47 48 115 48t114 -46q48 -48 48 -115q0 -66 -48 -114q-46 -46 -114 -46t-115 47
z" />
    <glyph glyph-name="divide" unicode="&#xf7;" horiz-adv-x="1120" 
d="M449 1029q-46 43 -46 104q0 62 46 103q44 40 112 40q70 0 116 -40t46 -103q0 -62 -46 -104q-47 -42 -116 -42q-67 0 -112 42zM57 868h1006v-274h-1006v274zM449 224q-46 43 -46 104q0 63 46 104t112 41q69 0 116 -41q46 -40 46 -104q0 -62 -46 -104q-47 -42 -116 -42
q-67 0 -112 42z" />
    <glyph glyph-name="oslash" unicode="&#xf8;" horiz-adv-x="1273" 
d="M1085 907q138 -152 138 -375q0 -169 -77 -299q-76 -128 -210 -197t-299 -69q-198 0 -344 94l-143 -153l-95 88l140 149q-70 74 -107 170q-37 98 -37 217q0 167 77 294q76 126 210 195t299 69q198 0 348 -99l137 148l97 -90zM410 377l387 414q-64 53 -160 53
q-119 0 -183 -79q-65 -80 -65 -233q0 -83 21 -155zM820 294q65 82 65 238q0 77 -19 142l-383 -410q57 -51 154 -51q119 0 183 81z" />
    <glyph glyph-name="ugrave" unicode="&#xf9;" horiz-adv-x="1312" 
d="M887 1057h336v-1057h-326l-10 326h-13q-15 -113 -71 -192q-56 -80 -141 -124q-83 -43 -179 -43q-104 0 -194 48q-91 48 -145 142q-54 93 -54 224v676h334v-576q0 -260 227 -260q109 0 172 74q64 75 64 207v555zM909 1366l-71 -182l-662 246l84 204z" />
    <glyph glyph-name="uacute" unicode="&#xfa;" horiz-adv-x="1312" 
d="M887 1057h336v-1057h-326l-10 326h-13q-15 -113 -71 -192q-56 -80 -141 -124q-83 -43 -179 -43q-104 0 -194 48q-91 48 -145 142q-54 93 -54 224v676h334v-576q0 -260 227 -260q109 0 172 74q64 75 64 207v555zM1135 1430l-664 -246l-70 182l650 268z" />
    <glyph glyph-name="ucircumflex" unicode="&#xfb;" horiz-adv-x="1312" 
d="M887 1057h336v-1057h-326l-10 326h-13q-15 -113 -71 -192q-56 -80 -141 -124q-83 -43 -179 -43q-104 0 -194 48q-91 48 -145 142q-54 93 -54 224v676h334v-576q0 -260 227 -260q109 0 172 74q64 75 64 207v555zM262 1186l234 295h315l233 -295h-260l-51 55q-46 46 -71 82
h-13q-25 -36 -69 -80l-56 -57h-262z" />
    <glyph glyph-name="udieresis" unicode="&#xfc;" horiz-adv-x="1312" 
d="M887 1057h336v-1057h-326l-10 326h-13q-15 -113 -71 -192q-56 -80 -141 -124q-83 -43 -179 -43q-104 0 -194 48q-91 48 -145 142q-54 93 -54 224v676h334v-576q0 -260 227 -260q109 0 172 74q64 75 64 207v555zM758 1235q-47 47 -47 113q0 64 47 113q46 48 114 48
t114 -46t46 -115q0 -68 -46 -114t-114 -46q-67 0 -114 47zM328 1233q-47 47 -47 113q0 64 47 113q46 48 114 48q69 0 115 -46q47 -47 47 -115q0 -67 -47 -114q-46 -46 -115 -46q-67 0 -114 47z" />
    <glyph glyph-name="yacute" unicode="&#xfd;" horiz-adv-x="1157" 
d="M590 281q92 353 153 555l66 221h346l-391 -1088q-50 -143 -124 -226q-72 -81 -174 -114q-99 -32 -247 -32q-39 0 -170 8v250q79 -7 115 -7q84 0 128 25q40 23 68 88l19 43l-377 1053h358l68 -228q105 -360 152 -548h10zM1059 1430l-664 -246l-69 182l649 268z" />
    <glyph glyph-name="thorn" unicode="&#xfe;" horiz-adv-x="1312" 
d="M1054 1021q98 -68 155 -196q57 -127 57 -297t-57 -297t-155 -194q-100 -68 -227 -68q-133 0 -237 79t-154 243h-12v-668h-334v1811h334v-670h12q50 167 154 246q106 80 237 80q128 0 227 -69zM861 279q69 89 69 249q0 163 -69 251q-69 89 -185 89q-115 0 -183 -75
q-69 -77 -69 -199v-133q0 -119 69 -195t183 -76q116 0 185 89z" />
    <glyph glyph-name="ydieresis" unicode="&#xff;" horiz-adv-x="1157" 
d="M590 281q92 353 153 555l66 221h346l-391 -1088q-50 -143 -124 -226q-72 -81 -174 -114q-99 -32 -247 -32q-39 0 -170 8v250q79 -7 115 -7q84 0 128 25q40 23 68 88l19 43l-377 1053h358l68 -228q105 -360 152 -548h10zM680 1235q-47 47 -47 113q0 64 47 113
q46 48 115 48q67 0 113 -46t46 -115q0 -68 -46 -114t-113 -46q-68 0 -115 47zM250 1233q-47 47 -47 113q0 64 47 113q46 48 115 48q68 0 114 -46q47 -47 47 -115q0 -67 -47 -114q-46 -46 -114 -46t-115 47z" />
    <glyph glyph-name="Amacron" unicode="&#x100;" horiz-adv-x="1509" 
d="M1511 0h-383l-104 313h-553l-102 -313h-371l524 1434h449zM559 582h375l-72 211q-68 211 -108 358h-17q-45 -169 -108 -360zM1159 1563h-823v217h823v-217z" />
    <glyph glyph-name="amacron" unicode="&#x101;" horiz-adv-x="1224" 
d="M144 484q108 82 325 81q196 -2 266 35q72 38 72 107q0 56 -47 97q-46 40 -146 40q-103 0 -164 -56q-62 -57 -69 -155h-330q15 200 154 328q139 129 405 129q261 0 392 -118q133 -119 133 -300v-672h-318l-10 322h-10q-21 -167 -127 -261t-277 -94q-157 0 -257 74
q-99 73 -99 219q0 142 107 224zM412 203q40 -29 106 -29q75 0 140 37q70 40 108 99q41 64 41 134v164h-10q-11 -69 -40 -112q-30 -44 -92 -69q-66 -27 -173 -34q-56 -5 -88 -32q-31 -27 -31 -76q0 -53 39 -82zM989 1186h-731v217h731v-217z" />
    <glyph glyph-name="Abreve" unicode="&#x102;" horiz-adv-x="1509" 
d="M1511 0h-383l-104 313h-553l-102 -313h-371l524 1434h449zM559 582h375l-72 211q-68 211 -108 358h-17q-45 -169 -108 -360zM502 1644q-98 80 -125 224h239q8 -56 42 -83q36 -28 87 -28q109 0 132 111h239q-29 -147 -127 -226t-244 -79q-144 0 -243 81z" />
    <glyph glyph-name="abreve" unicode="&#x103;" horiz-adv-x="1224" 
d="M144 484q108 82 325 81q196 -2 266 35q72 38 72 107q0 56 -47 97q-46 40 -146 40q-103 0 -164 -56q-62 -57 -69 -155h-330q15 200 154 328q139 129 405 129q261 0 392 -118q133 -119 133 -300v-672h-318l-10 322h-10q-21 -167 -127 -261t-277 -94q-157 0 -257 74
q-99 73 -99 219q0 142 107 224zM412 203q40 -29 106 -29q75 0 140 37q70 40 108 99q41 64 41 134v164h-10q-11 -69 -40 -112q-30 -44 -92 -69q-66 -27 -173 -34q-56 -5 -88 -32q-31 -27 -31 -76q0 -53 39 -82zM381 1267q-98 80 -125 224h240q8 -56 42 -83q36 -28 87 -28
q109 0 131 111h239q-29 -146 -127 -225q-100 -80 -243 -80q-145 0 -244 81z" />
    <glyph glyph-name="Aogonek" unicode="&#x104;" horiz-adv-x="1509" 
d="M1511 0h-383l-104 313h-553l-102 -313h-371l524 1434h449zM559 582h375l-72 211q-68 211 -108 358h-17q-45 -169 -108 -360zM1073 -246q0 88 88 154q89 66 250 84v8h100q-194 -88 -194 -178q0 -68 106 -72q43 0 90 6v-172q-79 -10 -141 -10q-299 0 -299 180z" />
    <glyph glyph-name="aogonek" unicode="&#x105;" horiz-adv-x="1224" 
d="M1137 -244v-172q-79 -10 -142 -10q-299 0 -299 180q0 88 88 154q89 66 250 84v8h-217l-10 322h-10q-21 -167 -127 -261t-277 -94q-157 0 -257 74q-99 73 -99 219q0 142 107 224q108 82 325 81q196 -2 266 35q72 38 72 107q0 56 -47 97q-46 40 -146 40q-103 0 -164 -56
q-62 -57 -69 -155h-330q15 200 154 328q139 129 405 129q261 0 392 -118q133 -119 133 -300v-672q-195 -88 -195 -178q0 -67 107 -72q45 0 90 6zM807 608h-10q-11 -69 -40 -112q-30 -44 -92 -69q-66 -27 -173 -34q-56 -5 -88 -32q-31 -27 -31 -76q0 -53 39 -82
q40 -29 106 -29q75 0 140 37q70 40 108 99q41 64 41 134v164z" />
    <glyph glyph-name="Cacute" unicode="&#x106;" horiz-adv-x="1511" 
d="M1466 567q-11 -185 -97 -319q-88 -136 -239 -208q-154 -73 -356 -73q-226 0 -389 90q-164 90 -251 258t-87 402q0 232 87 402q87 169 251 258t389 89q205 0 358 -72q151 -71 238 -208q85 -135 96 -322h-366q-15 153 -102 238q-88 86 -228 86q-164 0 -255 -124t-91 -347
q0 -221 93 -346t257 -125q141 0 227 86q87 87 99 235h366zM1253 1806l-663 -245l-70 182l649 268z" />
    <glyph glyph-name="cacute" unicode="&#x107;" horiz-adv-x="1165" 
d="M120 834q71 123 201 190q128 66 287 66q234 0 378 -126q146 -127 153 -343h-330q-1 111 -56 167q-54 56 -147 56q-106 0 -163 -79q-56 -78 -56 -224q0 -328 219 -328q100 0 150 57q48 56 53 174h330q-4 -155 -78 -263t-193 -161q-120 -53 -260 -53q-157 0 -283 60
t-202 187t-76 323q0 171 73 297zM1085 1430l-663 -246l-70 182l649 268z" />
    <glyph glyph-name="Cdotaccent" unicode="&#x10a;" horiz-adv-x="1511" 
d="M1466 567q-11 -185 -97 -319q-88 -136 -239 -208q-154 -73 -356 -73q-226 0 -389 90q-164 90 -251 258t-87 402q0 232 87 402q87 169 251 258t389 89q205 0 358 -72q151 -71 238 -208q85 -135 96 -322h-366q-15 153 -102 238q-88 86 -228 86q-164 0 -255 -124t-91 -347
q0 -221 93 -346t257 -125q141 0 227 86q87 87 99 235h366zM638 1619q-56 56 -56 132q0 78 56 134q57 57 134 57q78 0 136 -56q57 -56 57 -135q0 -80 -57 -134t-136 -54q-78 0 -134 56z" />
    <glyph glyph-name="cdotaccent" unicode="&#x10b;" horiz-adv-x="1165" 
d="M120 834q71 123 201 190q128 66 287 66q234 0 378 -126q146 -127 153 -343h-330q-1 111 -56 167q-54 56 -147 56q-106 0 -163 -79q-56 -78 -56 -224q0 -328 219 -328q100 0 150 57q48 56 53 174h330q-4 -155 -78 -263t-193 -161q-120 -53 -260 -53q-157 0 -283 60
t-202 187t-76 323q0 171 73 297zM472 1242q-56 56 -56 132q0 78 56 134q57 57 134 57q78 0 136 -56q57 -55 57 -135t-57 -134t-136 -54q-78 0 -134 56z" />
    <glyph glyph-name="Ccaron" unicode="&#x10c;" horiz-adv-x="1511" 
d="M1466 567q-11 -185 -97 -319q-88 -136 -239 -208q-154 -73 -356 -73q-226 0 -389 90q-164 90 -251 258t-87 402q0 232 87 402q87 169 251 258t389 89q205 0 358 -72q151 -71 238 -208q85 -135 96 -322h-366q-15 153 -102 238q-88 86 -228 86q-164 0 -255 -124t-91 -347
q0 -221 93 -346t257 -125q141 0 227 86q87 87 99 235h366zM381 1858h262l55 -56q56 -61 70 -80h12q25 34 72 80l51 56h260l-233 -295h-316z" />
    <glyph glyph-name="ccaron" unicode="&#x10d;" horiz-adv-x="1165" 
d="M120 834q71 123 201 190q128 66 287 66q234 0 378 -126q146 -127 153 -343h-330q-1 111 -56 167q-54 56 -147 56q-106 0 -163 -79q-56 -78 -56 -224q0 -328 219 -328q100 0 150 57q48 56 53 174h330q-4 -155 -78 -263t-193 -161q-120 -53 -260 -53q-157 0 -283 60
t-202 187t-76 323q0 171 73 297zM215 1481h262l55 -56q60 -64 70 -79h12q22 31 72 79l51 56h260l-233 -295h-315z" />
    <glyph glyph-name="Dcaron" unicode="&#x10e;" horiz-adv-x="1503" 
d="M1091 1357q166 -76 266 -238q99 -161 99 -402q0 -373 -207 -545q-206 -172 -534 -172h-606v1434h606q208 0 376 -77zM700 276q170 0 277 110q106 109 106 331q0 230 -106 335q-107 105 -277 105h-229v-881h229zM379 1858h262l55 -56q56 -61 70 -80h12q25 34 72 80l51 56
h260l-233 -295h-316z" />
    <glyph glyph-name="dcaron" unicode="&#x10f;" horiz-adv-x="1685" 
d="M889 1434h334v-1434h-324l-10 289h-12q-49 -163 -153 -243q-103 -79 -237 -79q-126 0 -227 68q-100 67 -157 193q-56 124 -56 296q0 174 56 299q57 128 157 195t227 67q135 0 237 -78q104 -80 153 -245h12v672zM820 263q69 75 69 196v133q0 120 -69 196t-183 76
q-116 0 -185 -89t-69 -251t69 -249t185 -87q114 0 183 75zM1528 868h-178l63 566h283z" />
    <glyph glyph-name="Dcroat" unicode="&#x110;" horiz-adv-x="1544" 
d="M1132 1357q166 -76 266 -238q99 -161 99 -402q0 -373 -207 -545q-206 -172 -534 -172h-606v682h-150v135h150v617h606q208 0 376 -77zM741 276q170 0 277 110q106 109 106 331q0 231 -106 336q-105 104 -279 104h-227v-340h305v-135h-305v-406h229z" />
    <glyph glyph-name="dcroat" unicode="&#x111;" horiz-adv-x="1376" 
d="M1376 1309v-127h-153v-1182h-324l-10 289h-12q-49 -163 -153 -243q-103 -79 -237 -79q-126 0 -227 68q-100 67 -157 193q-56 124 -56 296q0 174 56 299q57 128 157 195t227 67q135 0 237 -78q104 -80 153 -245h12v420h-303v127h303v125h334v-125h153zM820 263
q69 75 69 196v133q0 120 -69 196t-183 76q-116 0 -185 -89t-69 -251t69 -249t185 -87q114 0 183 75z" />
    <glyph glyph-name="Emacron" unicode="&#x112;" horiz-adv-x="1284" 
d="M1231 1434v-277h-760v-285h680v-270h-680v-326h760v-276h-1122v1434h1122zM1034 1563h-731v217h731v-217z" />
    <glyph glyph-name="emacron" unicode="&#x113;" horiz-adv-x="1208" 
d="M1153 459h-790q5 -114 76 -180q72 -66 188 -66q89 0 151 43q64 44 82 111h285q-17 -135 -98 -224q-82 -89 -195 -133q-111 -43 -225 -43q-269 0 -425 148q-155 147 -155 417q0 166 69 292q70 128 194 196q128 70 294 70q168 0 294 -73q122 -71 189 -197q66 -124 66 -275
v-86zM435 788q-65 -56 -72 -159h464q-7 100 -71 158q-63 57 -160 57q-96 0 -161 -56zM971 1186h-731v217h731v-217z" />
    <glyph glyph-name="Ebreve" unicode="&#x114;" horiz-adv-x="1284" 
d="M1231 1434v-277h-760v-285h680v-270h-680v-326h760v-276h-1122v1434h1122zM426 1644q-98 80 -125 224h240q8 -56 42 -83q36 -28 87 -28q108 0 131 111h239q-29 -147 -127 -226t-243 -79t-244 81z" />
    <glyph glyph-name="ebreve" unicode="&#x115;" horiz-adv-x="1208" 
d="M1153 459h-790q5 -114 76 -180q72 -66 188 -66q89 0 151 43q64 44 82 111h285q-17 -135 -98 -224q-82 -89 -195 -133q-111 -43 -225 -43q-269 0 -425 148q-155 147 -155 417q0 166 69 292q70 128 194 196q128 70 294 70q168 0 294 -73q122 -71 189 -197q66 -124 66 -275
v-86zM435 788q-65 -56 -72 -159h464q-7 100 -71 158q-63 57 -160 57q-96 0 -161 -56zM360 1267q-97 79 -124 224h239q8 -56 42 -83q36 -28 87 -28q52 0 86 29q32 28 43 82h240q-29 -145 -126 -225q-98 -80 -243 -80t-244 81z" />
    <glyph glyph-name="Edotaccent" unicode="&#x116;" horiz-adv-x="1284" 
d="M1231 1434v-277h-760v-285h680v-270h-680v-326h760v-276h-1122v1434h1122zM536 1619q-57 57 -57 132q0 77 57 134t134 57q78 0 136 -56q56 -55 56 -135q0 -81 -56 -134q-57 -54 -136 -54q-78 0 -134 56z" />
    <glyph glyph-name="edotaccent" unicode="&#x117;" horiz-adv-x="1208" 
d="M1153 459h-790q5 -114 76 -180q72 -66 188 -66q89 0 151 43q64 44 82 111h285q-17 -135 -98 -224q-82 -89 -195 -133q-111 -43 -225 -43q-269 0 -425 148q-155 147 -155 417q0 166 69 292q70 128 194 196q128 70 294 70q168 0 294 -73q122 -71 189 -197q66 -124 66 -275
v-86zM435 788q-65 -56 -72 -159h464q-7 100 -71 158q-63 57 -160 57q-96 0 -161 -56zM470 1242q-56 56 -56 132q0 78 56 134q57 57 134 57q78 0 136 -56q57 -55 57 -135t-57 -134t-136 -54q-78 0 -134 56z" />
    <glyph glyph-name="Eogonek" unicode="&#x118;" horiz-adv-x="1284" 
d="M1231 1434v-277h-760v-285h680v-270h-680v-326h760v-276h-1122v1434h1122zM791 -246q0 88 88 154q89 66 249 84v8h101q-195 -88 -195 -178q0 -67 107 -72q43 0 90 6v-172q-79 -10 -141 -10q-299 0 -299 180z" />
    <glyph glyph-name="eogonek" unicode="&#x119;" horiz-adv-x="1208" 
d="M1153 459h-791q4 -114 77 -180q72 -66 188 -66q89 0 151 43q64 44 82 111h285q-21 -155 -125 -251q-105 -98 -250 -132q-87 -40 -128 -84q-40 -43 -40 -80q0 -70 109 -70q45 0 88 6v-174q-67 -8 -137 -8q-142 0 -223 39t-81 135q0 79 77 139q76 59 229 70v12
q-16 -2 -37 -2q-269 0 -425 148q-155 147 -155 417q0 166 69 292q70 128 194 196q128 70 294 70q168 0 294 -73q122 -71 189 -197q66 -124 66 -275v-86zM435 788q-66 -57 -73 -159h465q-7 100 -71 158q-63 57 -160 57q-96 0 -161 -56z" />
    <glyph glyph-name="Ecaron" unicode="&#x11a;" horiz-adv-x="1284" 
d="M1231 1434v-277h-760v-285h680v-270h-680v-326h760v-276h-1122v1434h1122zM276 1858h263l55 -56q56 -61 70 -80h12q25 34 72 80l51 56h260l-234 -295h-315z" />
    <glyph glyph-name="ecaron" unicode="&#x11b;" horiz-adv-x="1208" 
d="M1153 459h-790q5 -114 76 -180q72 -66 188 -66q89 0 151 43q64 44 82 111h285q-17 -135 -98 -224q-82 -89 -195 -133q-111 -43 -225 -43q-269 0 -425 148q-155 147 -155 417q0 166 69 292q70 128 194 196q128 70 294 70q168 0 294 -73q122 -71 189 -197q66 -124 66 -275
v-86zM435 788q-65 -56 -72 -159h464q-7 100 -71 158q-63 57 -160 57q-96 0 -161 -56zM211 1481h264l53 -56q60 -64 70 -79h12q14 21 72 79l51 56h262l-233 -295h-318z" />
    <glyph glyph-name="Gbreve" unicode="&#x11e;" horiz-adv-x="1601" 
d="M1186 336q-38 -158 -159 -263q-123 -106 -335 -106q-180 0 -327 87t-233 257q-85 169 -85 406q0 233 91 402q92 169 258 258q167 89 390 89q299 0 481 -139q183 -140 216 -397h-371q-18 119 -102 188q-85 70 -213 70q-178 0 -277 -122q-98 -120 -98 -349q0 -239 104 -355
t305 -116q151 0 242 73q93 75 105 191l2 16h-455v244h788v-770h-296l-15 336h-16zM557 1644q-98 80 -125 224h240q8 -56 42 -83q36 -28 87 -28q109 0 131 111h239q-29 -147 -127 -226t-243 -79t-244 81z" />
    <glyph glyph-name="gbreve" unicode="&#x11f;" horiz-adv-x="1179" 
d="M1198 1008l-377 71l-4 -14q123 -30 200 -116t77 -206q0 -166 -130 -260t-360 -94q-84 0 -153 12q-46 -12 -63 -31q-17 -18 -17 -46q0 -36 32 -56q31 -20 93 -20h295q203 0 303 -79t100 -255q0 -350 -571 -350q-303 0 -428 57t-125 176q0 177 295 199v10q-131 8 -198 64
t-67 135q0 95 77 145q75 48 218 53v11q-137 38 -209 122q-73 85 -73 207q0 140 98 228q99 88 344 133q147 28 483 104l160 35v-235zM741 647q50 38 50 96q0 56 -50 91q-49 34 -137 34q-89 0 -138 -34q-50 -35 -50 -91q0 -59 49 -96t139 -37q88 0 137 37zM424 4
q-30 -12 -52 -37t-22 -63q0 -57 65 -84t210 -27q151 0 213 27q61 27 61 88q0 54 -36 76q-35 22 -113 22zM317 1267q-97 79 -124 224h239q8 -56 42 -83q36 -28 87 -28q52 0 86 29q32 28 43 82h240q-28 -145 -126 -225t-243 -80t-244 81z" />
    <glyph glyph-name="Gdotaccent" unicode="&#x120;" horiz-adv-x="1601" 
d="M1186 336q-38 -158 -159 -263q-123 -106 -335 -106q-180 0 -327 87t-233 257q-85 169 -85 406q0 233 91 402q92 169 258 258q167 89 390 89q299 0 481 -139q183 -140 216 -397h-371q-18 119 -102 188q-85 70 -213 70q-178 0 -277 -122q-98 -120 -98 -349q0 -239 104 -355
t305 -116q151 0 242 73q93 75 105 191l2 16h-455v244h788v-770h-296l-15 336h-16zM667 1619q-57 57 -57 132q0 77 57 134t134 57q78 0 136 -56q56 -55 56 -135q0 -81 -56 -134q-57 -54 -136 -54q-78 0 -134 56z" />
    <glyph glyph-name="gdotaccent" unicode="&#x121;" horiz-adv-x="1239" 
d="M1198 1008l-377 71l-4 -14q123 -30 200 -116t77 -206q0 -166 -130 -260t-360 -94q-84 0 -153 12q-46 -12 -63 -31q-17 -18 -17 -46q0 -36 32 -56q31 -20 93 -20h295q203 0 303 -79t100 -255q0 -350 -571 -350q-303 0 -428 57t-125 176q0 177 295 199v10q-131 8 -198 64
t-67 135q0 95 77 145q75 48 218 53v11q-137 38 -209 122q-73 85 -73 207q0 140 98 228q99 88 344 133q147 28 483 104l160 35v-235zM741 647q50 38 50 96q0 56 -50 91q-49 34 -137 34q-89 0 -138 -34q-50 -35 -50 -91q0 -59 49 -96t139 -37q88 0 137 37zM424 4
q-30 -12 -52 -37t-22 -63q0 -57 65 -84t210 -27q151 0 213 27q61 27 61 88q0 54 -36 76q-35 22 -113 22zM454 1242q-57 57 -57 132q0 77 57 134t134 57q78 0 136 -56q56 -55 56 -135q0 -81 -56 -134q-57 -54 -136 -54q-78 0 -134 56z" />
    <glyph glyph-name="uni0122" unicode="&#x122;" horiz-adv-x="1601" 
d="M1186 336q-38 -158 -159 -263q-123 -106 -335 -106q-180 0 -327 87t-233 257q-85 169 -85 406q0 233 91 402q92 169 258 258q167 89 390 89q299 0 481 -139q183 -140 216 -397h-371q-18 119 -102 188q-85 70 -213 70q-178 0 -277 -122q-98 -120 -98 -349q0 -239 104 -355
t305 -116q151 0 242 73q93 75 105 191l2 16h-455v244h788v-770h-296l-15 336h-16zM778 -565h-217l94 391h293z" />
    <glyph glyph-name="uni0123" unicode="&#x123;" horiz-adv-x="1239" 
d="M1198 1008l-377 71l-4 -14q123 -30 200 -116t77 -206q0 -166 -130 -260t-360 -94q-84 0 -153 12q-46 -12 -63 -31q-17 -18 -17 -46q0 -36 32 -56q31 -20 93 -20h295q203 0 303 -79t100 -255q0 -350 -571 -350q-303 0 -428 57t-125 176q0 177 295 199v10q-131 8 -198 64
t-67 135q0 95 77 145q75 48 218 53v11q-137 38 -209 122q-73 85 -73 207q0 140 98 228q99 88 344 133q147 28 483 104l160 35v-235zM741 647q50 38 50 96q0 56 -50 91q-49 34 -137 34q-89 0 -138 -34q-50 -35 -50 -91q0 -59 49 -96t139 -37q88 0 137 37zM424 4
q-30 -12 -52 -37t-22 -63q0 -57 65 -84t210 -27q151 0 213 27q61 27 61 88q0 54 -36 76q-35 22 -113 22zM664 1186h-218l95 391h293z" />
    <glyph glyph-name="Hbar" unicode="&#x126;" horiz-adv-x="1544" 
d="M1413 1249h131v-135h-131v-1114h-362v580h-555v-580h-363v1114h-133v135h133v185h363v-185h555v185h362v-185zM496 856h555v258h-555v-258z" />
    <glyph glyph-name="hbar" unicode="&#x127;" horiz-adv-x="1378" 
d="M1090 1041q90 -48 144 -141t54 -224v-676h-334v575q0 261 -227 261q-109 0 -172 -74t-63 -207v-555h-336v1182h-152v127h152v125h336v-125h303v-127h-303v-451h12q15 113 71 192t142 124q83 43 178 43q103 0 195 -49z" />
    <glyph glyph-name="Imacron" unicode="&#x12a;" horiz-adv-x="579" 
d="M109 0v1434h362v-1434h-362zM655 1563h-731v217h731v-217z" />
    <glyph glyph-name="imacron" unicode="&#x12b;" horiz-adv-x="520" 
d="M90 0v1057h336v-1057h-336zM623 1186h-732v217h732v-217z" />
    <glyph glyph-name="Iogonek" unicode="&#x12e;" horiz-adv-x="579" 
d="M109 0v1434h362v-1434h-362zM167 -379q-75 47 -75 146q0 91 85 151t224 70v12h70q-164 -86 -164 -176q1 -43 31 -60q28 -16 78 -16q21 0 61 4v-170q-78 -8 -108 -8q-126 0 -202 47z" />
    <glyph glyph-name="iogonek" unicode="&#x12f;" horiz-adv-x="520" 
d="M90 0v1057h336v-1057h-336zM122 1242q-56 56 -56 132q0 78 56 134q57 57 134 57q78 0 136 -56q57 -55 57 -135t-57 -134t-136 -54q-78 0 -134 56zM122 -379q-75 47 -75 146q0 91 85 151t224 70v12h70q-164 -86 -164 -176q1 -43 31 -60q28 -16 78 -16q21 0 61 4v-170
q-78 -8 -108 -8q-126 0 -202 47z" />
    <glyph glyph-name="Idotaccent" unicode="&#x130;" horiz-adv-x="579" 
d="M109 0v1434h362v-1434h-362zM155 1619q-57 57 -57 132q0 77 57 134t134 57q78 0 136 -56q56 -55 56 -135q0 -81 -56 -134q-57 -54 -136 -54q-78 0 -134 56z" />
    <glyph glyph-name="dotlessi" unicode="&#x131;" horiz-adv-x="520" 
d="M90 0v1057h336v-1057h-336z" />
    <glyph glyph-name="uni0136" unicode="&#x136;" horiz-adv-x="1490" 
d="M920 829q140 0 220 -71t140 -240l186 -518h-370l-152 412q-33 91 -76 123q-42 32 -131 32h-80l-186 -202v-365h-362v1434h362l-10 -633l14 -2q102 139 264 323l277 312h428l-320 -355q-155 -168 -223 -237l4 -13h15zM719 -565h-217l94 391h293z" />
    <glyph glyph-name="uni0137" unicode="&#x137;" horiz-adv-x="1212" 
d="M90 0v1434h326v-457q0 -191 -8 -359l10 -6q51 76 99 129q74 81 138 146l31 28l143 142h379l-209 -209q-58 -58 -243 -225l2 -11l26 -2q100 -1 166 -57q65 -55 109 -164l151 -389h-342l-82 221q-29 84 -74 126q-47 44 -118 44h-55l-123 -123v-268h-326zM594 -565h-217
l94 391h293z" />
    <glyph glyph-name="Lacute" unicode="&#x139;" horiz-adv-x="1185" 
d="M471 1434v-1158h690v-276h-1052v1434h362zM788 1806l-663 -245l-70 182l650 268z" />
    <glyph glyph-name="lacute" unicode="&#x13a;" horiz-adv-x="520" 
d="M90 0v1434h336v-1434h-336zM739 1806l-663 -245l-70 182l649 268z" />
    <glyph glyph-name="uni013B" unicode="&#x13b;" horiz-adv-x="1185" 
d="M471 1434v-1158h690v-276h-1052v1434h362zM639 -565h-217l94 391h293z" />
    <glyph glyph-name="uni013C" unicode="&#x13c;" horiz-adv-x="520" 
d="M90 0v1434h336v-1434h-336zM231 -565h-217l95 391h292z" />
    <glyph glyph-name="Lcaron" unicode="&#x13d;" horiz-adv-x="1185" 
d="M471 1434v-1158h690v-276h-1052v1434h362zM770 868h-178l63 566h283z" />
    <glyph glyph-name="lcaron" unicode="&#x13e;" horiz-adv-x="856" 
d="M90 0v1434h336v-1434h-336zM707 868h-179l64 566h282z" />
    <glyph glyph-name="Lslash" unicode="&#x141;" horiz-adv-x="1216" 
d="M500 797v-521h692v-276h-1053v645l-139 -59v149l139 60v639h361v-486l309 131v-151z" />
    <glyph glyph-name="lslash" unicode="&#x142;" horiz-adv-x="643" 
d="M489 870l154 76v-141l-154 -76v-729h-333v565l-156 -78v142l156 78v727h333v-564z" />
    <glyph glyph-name="Nacute" unicode="&#x143;" horiz-adv-x="1538" 
d="M453 971q4 -153 4 -473v-498h-348v1434h393l342 -557q123 -198 221 -375l16 4q-6 156 -6 426v502h355v-1434h-381l-328 543l-41 69q-121 201 -211 363zM1274 1806l-664 -245l-69 182l649 268z" />
    <glyph glyph-name="nacute" unicode="&#x144;" horiz-adv-x="1312" 
d="M1024 1041q90 -48 144 -141q55 -95 55 -224v-676h-334v575q0 125 -60 193t-167 68q-113 0 -176 -74q-62 -72 -62 -207v-555h-334v1057h326l8 -326h12q16 110 74 192q56 80 141 124q83 43 178 43q103 0 195 -49zM1143 1430l-664 -246l-69 182l649 268z" />
    <glyph glyph-name="uni0145" unicode="&#x145;" horiz-adv-x="1538" 
d="M453 971q4 -153 4 -473v-498h-348v1434h393l342 -557q123 -198 221 -375l16 4q-6 156 -6 426v502h355v-1434h-381l-328 543l-41 69q-121 201 -211 363zM745 -565h-217l95 391h292z" />
    <glyph glyph-name="uni0146" unicode="&#x146;" horiz-adv-x="1312" 
d="M1024 1041q90 -48 144 -141q55 -95 55 -224v-676h-334v575q0 125 -60 193t-167 68q-113 0 -176 -74q-62 -72 -62 -207v-555h-334v1057h326l8 -326h12q16 110 74 192q56 80 141 124q83 43 178 43q103 0 195 -49zM645 -565h-217l94 391h293z" />
    <glyph glyph-name="Ncaron" unicode="&#x147;" horiz-adv-x="1538" 
d="M453 971q4 -153 4 -473v-498h-348v1434h393l342 -557q123 -198 221 -375l16 4q-6 156 -6 426v502h355v-1434h-381l-328 543l-41 69q-121 201 -211 363zM403 1858h263l55 -56q56 -61 70 -80h12q27 37 71 80l52 56h260l-234 -295h-315z" />
    <glyph glyph-name="ncaron" unicode="&#x148;" horiz-adv-x="1312" 
d="M1024 1041q90 -48 144 -141q55 -95 55 -224v-676h-334v575q0 125 -60 193t-167 68q-113 0 -176 -74q-62 -72 -62 -207v-555h-334v1057h326l8 -326h12q16 110 74 192q56 80 141 124q83 43 178 43q103 0 195 -49zM270 1481h262l56 -56q55 -60 69 -79h13q25 34 71 79l52 56
h260l-234 -295h-315z" />
    <glyph glyph-name="Eng" unicode="&#x14a;" horiz-adv-x="1538" 
d="M109 0v1434h393l342 -557q123 -198 221 -375l16 4q-6 156 -6 426v502h354v-1434q0 -406 -423 -406q-198 0 -261 5v262q60 -4 166 -4q70 0 103 30t35 107v6l-328 543l-41 69q-121 201 -211 363l-16 -4q4 -153 4 -473v-498h-348z" />
    <glyph glyph-name="eng" unicode="&#x14b;" horiz-adv-x="1312" 
d="M90 0v1057h326l8 -326h12q16 110 74 192q56 80 141 124q83 43 178 43q103 0 195 -49q90 -48 144 -141q55 -95 55 -224v-713q0 -178 -109 -273q-110 -96 -291 -96q-129 0 -209 5v247q70 -2 140 -2q72 0 103 30q32 30 32 91v610q0 261 -227 261q-109 0 -174 -74
q-64 -73 -64 -207v-555h-334z" />
    <glyph glyph-name="Omacron" unicode="&#x14c;" horiz-adv-x="1572" 
d="M394 59q-168 91 -257 259q-90 170 -90 399q0 231 90 400q89 168 257 259q166 90 392 90t393 -90q168 -91 257 -259q90 -169 90 -400t-89 -400q-88 -167 -256 -258q-166 -90 -395 -90q-225 0 -392 90zM1056 362q95 118 95 355q0 233 -95 352t-270 119q-174 0 -268 -118
t-94 -353q0 -239 94 -355t268 -116q176 0 270 116zM1204 1563h-823v217h823v-217z" />
    <glyph glyph-name="omacron" unicode="&#x14d;" horiz-adv-x="1265" 
d="M334 36q-134 69 -210 197q-77 130 -77 299q0 167 77 294q76 126 210 195q133 69 299 69q165 0 299 -69t210 -195q77 -127 77 -294q0 -169 -77 -299q-76 -128 -210 -197t-299 -69t-299 69zM816 294q65 82 65 238q0 153 -65 233q-64 79 -183 79q-122 0 -186 -79t-64 -233
q0 -160 64 -239q65 -80 186 -80q119 0 183 81zM997 1186h-731v217h731v-217z" />
    <glyph glyph-name="Ohungarumlaut" unicode="&#x150;" horiz-adv-x="1572" 
d="M394 59q-168 91 -257 259q-90 170 -90 399q0 231 90 400q89 168 257 259q166 90 392 90t393 -90q168 -91 257 -259q90 -169 90 -400t-89 -400q-88 -167 -256 -258q-166 -90 -395 -90q-225 0 -392 90zM1056 362q95 118 95 355q0 233 -95 352t-270 119q-174 0 -268 -118
t-94 -353q0 -239 94 -355t268 -116q176 0 270 116zM887 1862l-260 -301l-162 106l203 342zM1300 1862l-260 -301l-161 106l202 342z" />
    <glyph glyph-name="ohungarumlaut" unicode="&#x151;" horiz-adv-x="1265" 
d="M334 36q-134 69 -210 197q-77 130 -77 299q0 167 77 294q76 126 210 195q133 69 299 69q165 0 299 -69t210 -195q77 -127 77 -294q0 -169 -77 -299q-76 -128 -210 -197t-299 -69t-299 69zM816 294q65 82 65 238q0 153 -65 233q-64 79 -183 79q-122 0 -186 -79t-64 -233
q0 -160 64 -239q65 -80 186 -80q119 0 183 81zM727 1485l-260 -301l-162 106l203 342zM1141 1485l-260 -301l-162 106l203 342z" />
    <glyph glyph-name="OE" unicode="&#x152;" horiz-adv-x="2357" 
d="M388 58q-164 88 -252 258q-89 170 -89 401q0 230 88 399q89 170 248 260t371 90q94 0 186 -24q91 -24 158 -68q28 -17 73 -65l11 4v121h1122v-277h-760v-285h682v-270h-682v-326h760v-276h-1122v123l-11 4q-16 -18 -47 -47q-68 -56 -162 -83q-98 -28 -198 -28
q-212 0 -376 89zM1056 362q95 118 95 355q0 233 -95 352t-270 119q-174 0 -268 -118t-94 -353q0 -239 94 -355t268 -116q176 0 270 116z" />
    <glyph glyph-name="oe" unicode="&#x153;" horiz-adv-x="2043" 
d="M332 36q-133 70 -208 197q-77 130 -77 299q0 165 77 293q76 126 208 196q130 69 293 69q121 0 228 -46q105 -45 177 -135h12q125 181 402 181q167 0 292 -74q123 -73 188 -198t65 -273v-86h-791q1 -115 67 -181q65 -65 177 -65q110 0 172 43q64 44 80 111h284
q-17 -135 -97 -224q-81 -90 -193 -133q-111 -43 -226 -43q-142 0 -247 42q-106 42 -173 138h-12q-146 -180 -405 -180q-163 0 -293 69zM801 294q63 81 63 238q0 154 -63 233t-176 79q-116 0 -179 -79t-63 -233q0 -157 63 -238t179 -81q113 0 176 81zM1663 629
q-7 102 -72 159q-64 56 -161 56q-96 0 -160 -56q-65 -57 -72 -159h465z" />
    <glyph glyph-name="Racute" unicode="&#x154;" horiz-adv-x="1406" 
d="M1372 0h-362l-43 309q-11 79 -34 117t-72 53q-48 15 -140 15h-250v-494h-362v1434h768q217 0 338 -94q120 -93 120 -265q0 -154 -104 -252q-103 -97 -277 -108v-15q119 -2 188 -28q70 -27 109 -88q40 -63 56 -166zM760 737q100 0 162 60q61 60 61 157q0 90 -61 147
q-60 56 -162 56h-289v-420h289zM1159 1806l-663 -245l-70 182l649 268z" />
    <glyph glyph-name="racute" unicode="&#x155;" horiz-adv-x="933" 
d="M436 649q24 164 70 255q46 90 135 130q91 41 254 41v-276q-175 -10 -272 -38q-94 -27 -144 -97q-49 -68 -55 -209v-455h-334v1057h326l8 -408h12zM948 1430l-663 -246l-70 182l649 268z" />
    <glyph glyph-name="uni0156" unicode="&#x156;" horiz-adv-x="1406" 
d="M1372 0h-362l-43 309q-11 79 -34 117t-72 53q-48 15 -140 15h-250v-494h-362v1434h768q217 0 338 -94q120 -93 120 -265q0 -154 -104 -252q-103 -97 -277 -108v-15q119 -2 188 -28q70 -27 109 -88q40 -63 56 -166zM760 737q100 0 162 60q61 60 61 157q0 90 -61 147
q-60 56 -162 56h-289v-420h289zM727 -565h-217l94 391h293z" />
    <glyph glyph-name="uni0157" unicode="&#x157;" horiz-adv-x="933" 
d="M436 649q24 164 70 255q46 90 135 130q91 41 254 41v-276q-175 -10 -272 -38q-94 -27 -144 -97q-49 -68 -55 -209v-455h-334v1057h326l8 -408h12zM233 -565h-217l95 391h292z" />
    <glyph glyph-name="Rcaron" unicode="&#x158;" horiz-adv-x="1406" 
d="M1372 0h-362l-43 309q-11 79 -34 117t-72 53q-48 15 -140 15h-250v-494h-362v1434h768q217 0 338 -94q120 -93 120 -265q0 -154 -104 -252q-103 -97 -277 -108v-15q119 -2 188 -28q70 -27 109 -88q40 -63 56 -166zM760 737q100 0 162 60q61 60 61 157q0 90 -61 147
q-60 56 -162 56h-289v-420h289zM287 1858h262l55 -56q56 -61 70 -80h12q25 34 72 80l51 56h260l-233 -295h-316z" />
    <glyph glyph-name="rcaron" unicode="&#x159;" horiz-adv-x="933" 
d="M436 649q24 164 70 255q46 90 135 130q91 41 254 41v-276q-175 -10 -272 -38q-94 -27 -144 -97q-49 -68 -55 -209v-455h-334v1057h326l8 -408h12zM76 1481h262l55 -56q60 -64 70 -79h12q22 31 72 79l51 56h260l-233 -295h-316z" />
    <glyph glyph-name="Sacute" unicode="&#x15a;" horiz-adv-x="1366" 
d="M204 100q-172 131 -167 369h350q12 -107 93 -161t222 -54q128 0 196 40q69 40 69 116q0 53 -39 89q-38 35 -115 50l-330 72q-205 43 -311 148t-106 263q0 204 163 318t457 114q298 0 465 -131q166 -130 172 -372h-344q-6 104 -82 161q-78 58 -211 58q-123 0 -189 -39
q-67 -40 -67 -113q0 -54 48 -94q49 -41 138 -62l385 -86q159 -38 244 -133q86 -97 86 -250q0 -205 -168 -319q-169 -115 -471 -115q-316 0 -488 131zM1163 1806l-663 -245l-70 182l649 268z" />
    <glyph glyph-name="sacute" unicode="&#x15b;" horiz-adv-x="1112" 
d="M169 66q-141 99 -142 284h323q4 -78 63 -120t167 -42q85 0 133 28q47 27 47 77q0 36 -32 60q-31 24 -112 42l-219 43q-169 30 -260 113q-90 83 -90 207q0 96 61 174q60 76 171 117q112 41 260 41q252 0 390 -100q136 -99 136 -288h-309q0 78 -53 122t-146 44
q-86 0 -134 -27t-48 -75q0 -74 129 -102l250 -52q333 -69 333 -307q0 -164 -133 -251q-134 -87 -381 -87q-263 0 -404 99zM1018 1430l-664 -246l-69 182l649 268z" />
    <glyph glyph-name="Scedilla" unicode="&#x15e;" horiz-adv-x="1366" 
d="M678 -88v-12h24q95 0 156 -43q62 -44 62 -113q0 -96 -82 -144q-84 -49 -230 -49q-58 0 -153 5v120q52 -2 123 -2q53 0 85 20q31 19 31 54q0 70 -116 70q-30 0 -52 -2v82q67 22 82 73q-278 16 -427 147q-149 130 -144 351h350q12 -107 93 -161t222 -54q128 0 196 40
q69 40 69 116q0 53 -39 89q-38 35 -115 50l-330 72q-205 43 -311 148t-106 263q0 204 163 318t457 114q298 0 465 -131q166 -130 172 -372h-344q-6 104 -82 161q-78 58 -211 58q-123 0 -189 -39q-67 -40 -67 -113q0 -54 48 -94q49 -41 138 -62l385 -86q159 -38 244 -133
q86 -97 86 -250q0 -194 -151 -308q-151 -113 -428 -124q-17 -42 -74 -59z" />
    <glyph glyph-name="scedilla" unicode="&#x15f;" horiz-adv-x="1112" 
d="M567 -88v-12h25q95 0 156 -43t61 -113q0 -96 -82 -144q-84 -49 -229 -49q-59 0 -154 5v120q52 -2 123 -2q53 0 85 20t32 54q0 70 -117 70q-29 0 -51 -2v82q66 22 82 71q-231 15 -350 112q-120 97 -121 269h323q4 -78 63 -120t167 -42q85 0 133 28q47 27 47 77
q0 36 -32 60q-31 24 -112 42l-219 43q-169 30 -260 113q-90 83 -90 207q0 96 61 174q60 76 171 117q112 41 260 41q252 0 390 -100q136 -99 136 -288h-309q0 78 -53 122t-146 44q-86 0 -134 -27t-48 -75q0 -74 129 -102l250 -52q333 -69 333 -307q0 -151 -114 -238
q-115 -88 -332 -98q-17 -42 -74 -57z" />
    <glyph glyph-name="Scaron" unicode="&#x160;" horiz-adv-x="1366" 
d="M204 100q-172 131 -167 369h350q12 -107 93 -161t222 -54q128 0 196 40q69 40 69 116q0 53 -39 89q-38 35 -115 50l-330 72q-205 43 -311 148t-106 263q0 204 163 318t457 114q298 0 465 -131q166 -130 172 -372h-344q-6 104 -82 161q-78 58 -211 58q-123 0 -189 -39
q-67 -40 -67 -113q0 -54 48 -94q49 -41 138 -62l385 -86q159 -38 244 -133q86 -97 86 -250q0 -205 -168 -319q-169 -115 -471 -115q-316 0 -488 131zM291 1858h262l55 -56q56 -61 70 -80h12q25 34 72 80l51 56h260l-233 -295h-316z" />
    <glyph glyph-name="scaron" unicode="&#x161;" horiz-adv-x="1112" 
d="M169 66q-141 99 -142 284h323q4 -78 63 -120t167 -42q85 0 133 28q47 27 47 77q0 36 -32 60q-31 24 -112 42l-219 43q-169 30 -260 113q-90 83 -90 207q0 96 61 174q60 76 171 117q112 41 260 41q252 0 390 -100q136 -99 136 -288h-309q0 78 -53 122t-146 44
q-86 0 -134 -27t-48 -75q0 -74 129 -102l250 -52q333 -69 333 -307q0 -164 -133 -251q-134 -87 -381 -87q-263 0 -404 99zM145 1481h263l55 -56q55 -60 69 -79h13q25 34 71 79l52 56h260l-234 -295h-315z" />
    <glyph glyph-name="uni0162" unicode="&#x162;" horiz-adv-x="1296" 
d="M1272 1434v-277h-438v-1157h-363v1157h-446v277h1247zM670 -100q94 0 155 -43q62 -44 62 -113q0 -96 -83 -144q-84 -49 -231 -49q-56 0 -151 5v120q52 -2 123 -2q53 0 85 21t32 53q0 70 -117 70q-29 0 -51 -2v82q84 30 84 102h147q0 -29 -23 -54q-22 -23 -57 -34v-12h25z
" />
    <glyph glyph-name="uni0163" unicode="&#x163;" horiz-adv-x="858" 
d="M815 858h-301v-491q0 -51 12 -77q12 -25 44 -37q29 -11 96 -11q70 0 147 6v-248q-168 -13 -207 -14q-4 -27 -25 -46q-22 -20 -53 -28v-12h25q95 0 156 -43t61 -113q0 -96 -82 -144q-84 -49 -229 -49q-59 0 -154 5v120q52 -2 123 -2q53 0 85 20t32 54q0 70 -117 70
q-29 0 -51 -2v82q80 27 86 94q-143 16 -213 89t-70 224v553h-157v199h157v276h316l10 -276h309v-199z" />
    <glyph glyph-name="Tcaron" unicode="&#x164;" horiz-adv-x="1296" 
d="M1272 1434v-277h-438v-1157h-363v1157h-446v277h1247zM256 1858h262l55 -56q56 -61 70 -80h12q25 34 72 80l51 56h260l-233 -295h-316z" />
    <glyph glyph-name="tcaron" unicode="&#x165;" horiz-adv-x="858" 
d="M815 858h-301v-491q0 -51 12 -77q12 -25 44 -37q29 -11 96 -11q70 0 147 6v-248q-151 -14 -246 -14q-200 1 -294 71q-93 69 -93 248v553h-157v199h157v276h316l10 -276h309v-199zM782 1135h-194l63 421h283z" />
    <glyph glyph-name="Tbar" unicode="&#x166;" horiz-adv-x="1296" 
d="M1272 1434v-277h-438v-362h239v-136h-239v-659h-363v659h-246v136h246v362h-446v277h1247z" />
    <glyph glyph-name="tbar" unicode="&#x167;" horiz-adv-x="858" 
d="M815 858h-301v-231h301v-127h-301v-133q0 -51 12 -77q12 -25 44 -37q29 -11 96 -11q70 0 147 6v-248q-151 -14 -246 -14q-200 1 -294 71q-93 69 -93 248v195h-157v127h157v231h-157v199h157v276h316l10 -276h309v-199z" />
    <glyph glyph-name="Umacron" unicode="&#x16a;" horiz-adv-x="1472" 
d="M88 1434h363v-879q0 -305 284 -305q148 0 218 76q71 77 71 229v879h360v-904q0 -285 -178 -424t-471 -139q-179 0 -328 61q-148 60 -233 189q-86 130 -86 326v891zM1153 1567h-823v217h823v-217z" />
    <glyph glyph-name="umacron" unicode="&#x16b;" horiz-adv-x="1312" 
d="M887 1057h336v-1057h-326l-10 326h-13q-15 -113 -71 -192q-56 -80 -141 -124q-83 -43 -179 -43q-104 0 -194 48q-91 48 -145 142q-54 93 -54 224v676h334v-576q0 -260 227 -260q109 0 172 74q64 75 64 207v555zM1022 1186h-731v217h731v-217z" />
    <glyph glyph-name="Uring" unicode="&#x16e;" horiz-adv-x="1472" 
d="M1384 1434v-904q0 -285 -178 -424t-471 -139q-179 0 -328 61q-148 60 -233 189q-86 130 -86 326v891h350q-18 46 -18 102q0 127 89 204t232 77t232 -78q88 -78 88 -203q0 -53 -19 -102h342zM655 1606q-32 -26 -32 -70q0 -46 32 -72t86 -26t87 26q34 27 34 72q0 43 -34 70
q-33 26 -87 26t-86 -26zM953 326q71 77 71 229v838q-38 -65 -113 -103q-73 -37 -170 -37q-102 0 -178 40q-74 39 -112 112v-850q0 -305 284 -305q148 0 218 76z" />
    <glyph glyph-name="uring" unicode="&#x16f;" horiz-adv-x="1312" 
d="M887 1057h336v-1057h-326l-10 326h-13q-15 -113 -71 -192q-56 -80 -141 -124q-83 -43 -179 -43q-104 0 -194 48q-91 48 -145 142q-54 93 -54 224v676h334v-576q0 -260 227 -260q109 0 172 74q64 75 64 207v555zM423 1264q-89 78 -89 204q0 127 89 205q88 78 232 78
t233 -78t89 -205q0 -126 -89 -204t-233 -78q-143 0 -232 78zM743 1397q33 27 33 71q0 45 -33 72t-88 27q-53 0 -86 -27q-32 -26 -32 -72q0 -45 32 -71q33 -27 86 -27q55 0 88 27z" />
    <glyph glyph-name="Uhungarumlaut" unicode="&#x170;" horiz-adv-x="1472" 
d="M88 1434h363v-879q0 -305 284 -305q148 0 218 76q71 77 71 229v879h360v-904q0 -285 -178 -424t-471 -139q-179 0 -328 61q-148 60 -233 189q-86 130 -86 326v891zM838 1866l-260 -301l-162 106l202 342zM1251 1866l-260 -301l-162 106l203 342z" />
    <glyph glyph-name="uhungarumlaut" unicode="&#x171;" horiz-adv-x="1312" 
d="M887 1057h336v-1057h-326l-10 326h-13q-15 -113 -71 -192q-56 -80 -141 -124q-83 -43 -179 -43q-104 0 -194 48q-91 48 -145 142q-54 93 -54 224v676h334v-576q0 -260 227 -260q109 0 172 74q64 75 64 207v555zM752 1485l-260 -301l-162 106l202 342zM1165 1485
l-260 -301l-162 106l203 342z" />
    <glyph glyph-name="Uogonek" unicode="&#x172;" horiz-adv-x="1472" 
d="M1024 1434h360v-904q0 -226 -112 -359q-113 -134 -311 -179q-98 -45 -140 -89q-43 -46 -43 -83q0 -70 109 -70q45 0 88 6v-174q-67 -8 -137 -8q-142 0 -223 39q-80 39 -80 135q0 79 76 139q76 59 229 70v14q-61 -4 -105 -4q-179 0 -328 61q-148 60 -233 189
q-86 130 -86 326v891h363v-879q0 -305 284 -305q148 0 218 76q71 77 71 229v879z" />
    <glyph glyph-name="uogonek" unicode="&#x173;" horiz-adv-x="1312" 
d="M1221 0q-195 -88 -195 -178q0 -67 107 -72q45 0 90 6v-172q-79 -10 -142 -10q-299 0 -299 180q0 88 88 154q89 66 250 84v8h-223l-10 326h-13q-15 -113 -71 -192q-56 -80 -141 -124q-83 -43 -179 -43q-104 0 -194 48q-91 48 -145 142q-54 93 -54 224v676h334v-576
q0 -260 227 -260q109 0 172 74q64 75 64 207v555h336v-1057h-2z" />
    <glyph glyph-name="Wcircumflex" unicode="&#x174;" horiz-adv-x="2041" 
d="M391 0l-393 1434h379l33 -138q36 -171 86 -378q10 -49 53 -242q37 -167 57 -266h17q21 126 110 546q44 201 74 349l29 129h370l27 -129l65 -304q4 -19 22 -100.5t32 -146.5q39 -181 67 -344h15q43 208 176 788l22 98l33 138h379l-395 -1434h-412l-209 989h-14l-211 -989
h-412zM627 1563l233 295h316l233 -295h-260l-51 55q-49 49 -72 82h-12q-23 -33 -70 -80l-55 -57h-262z" />
    <glyph glyph-name="wcircumflex" unicode="&#x175;" horiz-adv-x="1781" 
d="M354 0l-352 1057h358l60 -197l31 -106q67 -228 102 -375h10q32 129 103 403l20 78l53 197h303l56 -197q75 -289 121 -481h12q26 108 49 189q23 85 39 143q26 87 43 149l61 197h357l-350 -1057h-351l-182 659h-12l-180 -659h-351zM498 1186l233 295h316l233 -295h-260
l-51 55q-49 49 -72 82h-12q-23 -33 -70 -80l-55 -57h-262z" />
    <glyph glyph-name="Ycircumflex" unicode="&#x176;" horiz-adv-x="1415" 
d="M1417 1434l-524 -865v-569h-365v569l-530 865h408l92 -158q152 -260 213 -387h14q72 149 211 395l86 150h395zM326 1563l233 295h315l234 -295h-260l-51 55q-49 49 -72 82h-12q-23 -33 -70 -80l-55 -57h-262z" />
    <glyph glyph-name="ycircumflex" unicode="&#x177;" horiz-adv-x="1157" 
d="M590 281q92 353 153 555l66 221h346l-391 -1088q-50 -143 -124 -226q-72 -81 -174 -114q-99 -32 -247 -32q-39 0 -170 8v250q79 -7 115 -7q84 0 128 25q40 23 68 88l19 43l-377 1053h358l68 -228q105 -360 152 -548h10zM186 1186l234 295h315l234 -295h-260l-52 55
q-46 46 -71 82h-13q-25 -36 -69 -80l-55 -57h-263z" />
    <glyph glyph-name="Ydieresis" unicode="&#x178;" horiz-adv-x="1415" 
d="M1417 1434l-524 -865v-569h-365v569l-530 865h408l92 -158q152 -260 213 -387h14q72 149 211 395l86 150h395zM819 1612q-47 47 -47 112t47 114q47 48 115 48t114 -46t46 -116q0 -67 -46 -113t-114 -46t-115 47zM389 1610q-47 47 -47 112t47 114q46 48 115 48
q68 0 114 -46q48 -48 48 -116q0 -65 -48 -113q-46 -46 -114 -46t-115 47z" />
    <glyph glyph-name="Zacute" unicode="&#x179;" horiz-adv-x="1308" 
d="M53 0l-2 283l762 847l-6 15q-186 -15 -518 -15h-199v304h1157v-287l-762 -844l9 -14q227 14 434 14h329v-303h-1204zM1180 1806l-664 -245l-70 182l650 268z" />
    <glyph glyph-name="zacute" unicode="&#x17a;" horiz-adv-x="1118" 
d="M55 0v174l555 639l-4 10q-117 -12 -334 -12h-182v246h944v-201l-514 -610l6 -13q166 13 310 13h225v-246h-1006zM1038 1430l-663 -246l-70 182l649 268z" />
    <glyph glyph-name="Zdotaccent" unicode="&#x17b;" horiz-adv-x="1308" 
d="M53 0l-2 283l762 847l-6 15q-186 -15 -518 -15h-199v304h1157v-287l-762 -844l9 -14q227 14 434 14h329v-303h-1204zM566 1619q-56 56 -56 132q0 78 56 134q57 57 134 57q79 0 137 -56q56 -55 56 -135q0 -81 -56 -134q-57 -54 -137 -54q-78 0 -134 56z" />
    <glyph glyph-name="zdotaccent" unicode="&#x17c;" horiz-adv-x="1118" 
d="M55 0v174l555 639l-4 10q-117 -12 -334 -12h-182v246h944v-201l-514 -610l6 -13q166 13 310 13h225v-246h-1006zM425 1242q-56 56 -56 132q0 78 56 134q57 57 134 57q78 0 136 -56q57 -55 57 -135t-57 -134t-136 -54q-78 0 -134 56z" />
    <glyph glyph-name="Zcaron" unicode="&#x17d;" horiz-adv-x="1308" 
d="M53 0l-2 283l762 847l-6 15q-186 -15 -518 -15h-199v304h1157v-287l-762 -844l9 -14q227 14 434 14h329v-303h-1204zM307 1858h262l56 -56q52 -56 69 -80h13q27 37 71 80l51 56h261l-234 -295h-315z" />
    <glyph glyph-name="zcaron" unicode="&#x17e;" horiz-adv-x="1118" 
d="M55 0v174l555 639l-4 10q-117 -12 -334 -12h-182v246h944v-201l-514 -610l6 -13q166 13 310 13h225v-246h-1006zM166 1481h262l55 -56q60 -64 70 -79h12q22 31 72 79l51 56h260l-233 -295h-316z" />
    <glyph glyph-name="florin" unicode="&#x192;" horiz-adv-x="1232" 
d="M914 1170q-41 -37 -52 -126l-26 -200h280v-199h-299l-98 -670q-30 -205 -133 -301q-101 -94 -303 -94q-114 0 -240 14v259q119 -9 150 -9q79 0 113 37q33 36 48 127l95 637h-226v199h256l35 233q30 205 133 301q103 95 303 95q105 0 240 -15v-256q-111 6 -150 6
q-83 0 -126 -38z" />
    <glyph glyph-name="uni01E2" unicode="&#x1e2;" horiz-adv-x="2158" 
d="M1284 602l123 -326h741v-276h-1020l-104 313h-553l-102 -313h-371l524 1434h1288v-277h-735l107 -285h762v-270h-660zM559 582h375l-72 211q-68 211 -108 358h-17q-45 -169 -108 -360zM1466 1563h-731v217h731v-217z" />
    <glyph glyph-name="uni01E3" unicode="&#x1e3;" horiz-adv-x="1984" 
d="M136 41q-99 73 -99 219q0 142 107 224q108 82 325 81q196 -2 266 35q72 38 72 107q0 56 -46 96q-47 41 -143 41q-111 0 -167 -53q-57 -53 -64 -158h-330q15 200 151 328q136 129 404 129q138 0 234 -36q97 -36 158 -118h12q68 84 158 119q91 35 210 35q167 0 292 -74
q124 -74 189 -198q64 -124 64 -273v-86h-790q1 -117 67 -181q67 -65 176 -65q110 0 172 43q64 44 82 111h283q-17 -135 -97 -224t-194 -133q-111 -43 -225 -43q-133 0 -242 38q-108 37 -182 110q-85 77 -129 207h-10q-29 -165 -151 -260t-296 -95q-157 0 -257 74zM1604 629
q-7 99 -72 158q-63 57 -160 57q-98 0 -162 -56t-71 -159h465zM658 211q70 40 108 99q41 64 41 134v164h-10q-11 -69 -40 -112q-30 -44 -92 -69q-66 -27 -173 -34q-56 -5 -88 -32q-31 -27 -31 -76q0 -51 39 -81t106 -30q75 0 140 37zM1380 1186h-731v217h731v-217z" />
    <glyph glyph-name="AEacute" unicode="&#x1fc;" horiz-adv-x="2158" 
d="M1284 602l123 -326h741v-276h-1020l-104 313h-553l-102 -313h-371l524 1434h1288v-277h-735l107 -285h762v-270h-660zM559 582h375l-72 211q-68 211 -108 358h-17q-45 -169 -108 -360zM1579 1806l-664 -245l-69 182l649 268z" />
    <glyph glyph-name="aeacute" unicode="&#x1fd;" horiz-adv-x="1984" 
d="M136 41q-99 73 -99 219q0 142 107 224q108 82 325 81q196 -2 266 35q72 38 72 107q0 56 -46 96q-47 41 -143 41q-111 0 -167 -53q-57 -53 -64 -158h-330q15 200 151 328q136 129 404 129q138 0 234 -36q97 -36 158 -118h12q68 84 158 119q91 35 210 35q167 0 292 -74
q124 -74 189 -198q64 -124 64 -273v-86h-790q1 -117 67 -181q67 -65 176 -65q110 0 172 43q64 44 82 111h283q-17 -135 -97 -224t-194 -133q-111 -43 -225 -43q-133 0 -242 38q-108 37 -182 110q-85 77 -129 207h-10q-29 -165 -151 -260t-296 -95q-157 0 -257 74zM1604 629
q-7 99 -72 158q-63 57 -160 57q-98 0 -162 -56t-71 -159h465zM658 211q70 40 108 99q41 64 41 134v164h-10q-11 -69 -40 -112q-30 -44 -92 -69q-66 -27 -173 -34q-56 -5 -88 -32q-31 -27 -31 -76q0 -51 39 -81t106 -30q75 0 140 37zM1493 1430l-664 -246l-69 182l649 268z
" />
    <glyph glyph-name="uni0218" unicode="&#x218;" horiz-adv-x="1366" 
d="M204 100q-172 131 -167 369h350q12 -107 93 -161t222 -54q128 0 196 40q69 40 69 116q0 53 -39 89q-38 35 -115 50l-330 72q-205 43 -311 148t-106 263q0 204 163 318t457 114q298 0 465 -131q166 -130 172 -372h-344q-6 104 -82 161q-78 58 -211 58q-123 0 -189 -39
q-67 -40 -67 -113q0 -54 48 -94q49 -41 138 -62l385 -86q159 -38 244 -133q86 -97 86 -250q0 -205 -168 -319q-169 -115 -471 -115q-316 0 -488 131zM662 -565h-218l95 391h293z" />
    <glyph glyph-name="uni0219" unicode="&#x219;" horiz-adv-x="1112" 
d="M169 66q-141 99 -142 284h323q4 -78 63 -120t167 -42q85 0 133 28q47 27 47 77q0 36 -32 60q-31 24 -112 42l-219 43q-169 30 -260 113q-90 83 -90 207q0 96 61 174q60 76 171 117q112 41 260 41q252 0 390 -100q136 -99 136 -288h-309q0 78 -53 122t-146 44
q-86 0 -134 -27t-48 -75q0 -74 129 -102l250 -52q333 -69 333 -307q0 -164 -133 -251q-134 -87 -381 -87q-263 0 -404 99zM549 -565h-217l94 391h293z" />
    <glyph glyph-name="uni021A" unicode="&#x21a;" horiz-adv-x="1296" 
d="M1272 1434v-277h-438v-1157h-363v1157h-446v277h1247zM627 -565h-217l94 391h293z" />
    <glyph glyph-name="uni021B" unicode="&#x21b;" horiz-adv-x="858" 
d="M815 858h-301v-491q0 -51 12 -77q12 -25 44 -37q29 -11 96 -11q70 0 147 6v-248q-151 -14 -246 -14q-200 1 -294 71q-93 69 -93 248v553h-157v199h157v276h316l10 -276h309v-199zM510 -565h-217l94 391h293z" />
    <glyph glyph-name="circumflex" unicode="&#x2c6;" horiz-adv-x="751" 
d="M-16 1186l233 295h318l233 -295h-262l-51 55q-59 63 -72 82h-12q-23 -33 -70 -80l-53 -57h-264z" />
    <glyph glyph-name="caron" unicode="&#x2c7;" horiz-adv-x="751" 
d="M-14 1481h264l53 -56q60 -64 70 -79h12q14 21 72 79l51 56h262l-233 -295h-318z" />
    <glyph glyph-name="breve" unicode="&#x2d8;" horiz-adv-x="819" 
d="M166 1267q-98 80 -125 224h240q8 -56 42 -83q36 -28 87 -28q52 0 86 29q32 28 43 82h239q-28 -145 -126 -225t-242 -80q-145 0 -244 81z" />
    <glyph glyph-name="dotaccent" unicode="&#x2d9;" horiz-adv-x="811" 
d="M273 1241q-56 55 -56 133t56 134q57 57 135 57q79 0 135 -56q55 -55 55 -135t-55 -134t-135 -54q-79 0 -135 55z" />
    <glyph glyph-name="ring" unicode="&#x2da;" horiz-adv-x="819" 
d="M177 1264q-89 78 -89 204q0 127 89 205t233 78t232 -78q89 -78 89 -205q0 -126 -89 -204q-88 -78 -232 -78t-233 78zM498 1397q32 26 32 71q0 46 -32 72q-33 27 -88 27q-53 0 -86 -27t-33 -72q0 -44 33 -71t86 -27q55 0 88 27z" />
    <glyph glyph-name="ogonek" unicode="&#x2db;" horiz-adv-x="440" 
d="M85 -379q-85 46 -85 148q0 90 75 144q77 55 263 79v8h100q-194 -88 -194 -178q0 -72 106 -72q44 0 90 6v-172q-73 -10 -129 -10q-140 0 -226 47z" />
    <glyph glyph-name="tilde" unicode="&#x2dc;" horiz-adv-x="819" 
d="M20 1186q0 140 57 212t163 72q84 0 180 -38q81 -31 117 -31q59 0 61 72h201q0 -139 -57 -210t-162 -71q-82 0 -181 37q-81 31 -118 31q-58 0 -60 -74h-201z" />
    <glyph glyph-name="hungarumlaut" unicode="&#x2dd;" horiz-adv-x="915" 
d="M422 1485l-260 -301l-162 106l203 342zM836 1485l-261 -301l-161 106l202 342z" />
    <glyph glyph-name="uni02F3" unicode="&#x2f3;" horiz-adv-x="819" 
d="M177 -539q-89 78 -89 205t89 205t233 78t232 -78q89 -78 89 -205t-89 -205q-87 -77 -232 -77q-146 0 -233 77zM498 -406q32 26 32 72t-32 72t-88 26q-54 0 -86 -26q-33 -27 -33 -72t33 -72q32 -26 86 -26q56 0 88 26z" />
    <glyph glyph-name="gravecomb" unicode="&#x300;" horiz-adv-x="0" 
d="M0 1743l-72 -182l-661 245l84 205z" />
    <glyph glyph-name="acutecomb" unicode="&#x301;" horiz-adv-x="0" 
d="M0 1806l-664 -245l-69 182l649 268z" />
    <glyph glyph-name="uni0302" unicode="&#x302;" horiz-adv-x="0" 
d="M-782 1563l233 295h316l233 -295h-260l-51 55q-49 49 -72 82h-12q-23 -33 -70 -80l-55 -57h-262z" />
    <glyph glyph-name="tildecomb" unicode="&#x303;" horiz-adv-x="0" 
d="M-780 1563q0 141 56 212q57 72 163 72q81 0 180 -39q78 -30 119 -30q28 0 43 16q14 16 16 55h203q0 -141 -56 -210q-57 -70 -163 -70q-78 0 -182 37q-78 30 -119 30q-59 0 -60 -73h-200z" />
    <glyph glyph-name="uni0304" unicode="&#x304;" horiz-adv-x="0" 
d="M0 1563h-731v217h731v-217z" />
    <glyph glyph-name="uni0306" unicode="&#x306;" horiz-adv-x="0" 
d="M-614 1644q-98 80 -125 224h239q8 -56 42 -83q36 -28 87 -28q109 0 131 111h240q-29 -147 -127 -226t-244 -79q-144 0 -243 81z" />
    <glyph glyph-name="uni0307" unicode="&#x307;" horiz-adv-x="0" 
d="M-292 1619q-56 56 -56 132q0 78 56 134q57 57 134 57q78 0 136 -56q57 -56 57 -135q0 -80 -57 -134t-136 -54q-78 0 -134 56z" />
    <glyph glyph-name="uni0308" unicode="&#x308;" horiz-adv-x="0" 
d="M-274 1612q-48 48 -48 112t48 114q46 48 114 48t114 -46t46 -116q0 -67 -46 -113t-114 -46q-67 0 -114 47zM-705 1610q-47 47 -47 112t47 114q46 48 115 48t115 -46q47 -47 47 -116q0 -66 -47 -113q-46 -46 -115 -46q-68 0 -115 47z" />
    <glyph glyph-name="uni030A" unicode="&#x30a;" horiz-adv-x="0" 
d="M-553 1327q-88 78 -88 205t89 204q88 76 233 76q144 0 231 -77q88 -78 88 -203q0 -127 -88 -205t-231 -78q-145 0 -234 78zM-232 1460q33 26 33 72q0 44 -33 70t-87 26q-55 0 -87 -26t-32 -70q0 -46 32 -72t87 -26q54 0 87 26z" />
    <glyph glyph-name="uni030B" unicode="&#x30b;" horiz-adv-x="0" 
d="M-414 1862l-260 -301l-162 106l203 342zM0 1862l-260 -301l-162 106l203 342z" />
    <glyph glyph-name="uni030C" unicode="&#x30c;" horiz-adv-x="0" 
d="M-782 1858h262l55 -56q56 -61 70 -80h12q25 34 72 80l51 56h260l-233 -295h-316z" />
    <glyph glyph-name="uni0312" unicode="&#x312;" horiz-adv-x="0" 
d="M-184 1563h-217l94 391h293z" />
    <glyph glyph-name="uni0326" unicode="&#x326;" horiz-adv-x="0" 
d="M-172 -565h-217l94 391h293z" />
    <glyph glyph-name="uni0327" unicode="&#x327;" horiz-adv-x="0" 
d="M-217 -100q95 0 156 -43t61 -113q0 -96 -83 -144q-84 -49 -230 -49q-57 0 -152 5v120q52 -2 123 -2q54 0 85 21q32 21 32 53q0 70 -117 70q-29 0 -51 -2v82q84 30 84 102h147q0 -31 -22 -54q-21 -23 -58 -34v-12h25z" />
    <glyph glyph-name="uni0328" unicode="&#x328;" horiz-adv-x="0" 
d="M-440 -246q0 88 88 154q89 66 250 84v8h100q-195 -88 -195 -178q0 -67 107 -72q44 0 90 6v-172q-79 -10 -141 -10q-299 0 -299 180z" />
    <glyph glyph-name="uni0394" unicode="&#x394;" horiz-adv-x="1423" 
d="M1372 0h-1321v301l422 1133h465l434 -1133v-301zM410 283h256h116h219l7 12q-68 145 -117 295l-86 248q-37 111 -94 319h-15q-52 -192 -98 -330l-82 -249q-56 -165 -115 -283z" />
    <glyph glyph-name="uni03A9" unicode="&#x3a9;" horiz-adv-x="1622" 
d="M47 0v281h369l2 16q-182 69 -271 219q-88 149 -88 320q0 197 96 343q94 143 263 220q167 76 385 76q224 0 395 -76q173 -77 267 -220q96 -146 96 -343q0 -171 -88 -320q-88 -150 -269 -219l4 -16h367v-281h-680v248q142 66 219 209q78 144 78 317q0 202 -98 310
q-99 110 -281 110q-185 0 -284 -110t-99 -310q0 -174 80 -319q79 -144 221 -207v-248h-684z" />
    <glyph glyph-name="uni03BC" unicode="&#x3bc;" horiz-adv-x="1425" 
d="M90 -377v1434h334v-582q0 -117 62 -185q63 -69 188 -69q128 0 188 62q60 61 60 194v580h333v-754q0 -35 15 -51t47 -16q42 0 88 2v-240l-51 -2q-76 -6 -131 -6q-143 0 -219 57t-82 199v53h-13q-23 -164 -85 -246q-63 -82 -208 -82q-111 0 -180 60l-12 -6l-18 -402h-316z
" />
    <glyph glyph-name="pi" unicode="&#x3c0;" horiz-adv-x="1337" 
d="M1294 815h-155v-510q0 -69 61 -69q44 0 94 2v-238q-127 -10 -188 -10q-115 0 -177 26q-64 27 -94 89q-30 63 -30 174v536h-293v-815h-336v815h-153v242h1271v-242z" />
    <glyph glyph-name="Wgrave" unicode="&#x1e80;" horiz-adv-x="2041" 
d="M391 0l-393 1434h379l33 -138q36 -171 86 -378q10 -49 53 -242q37 -167 57 -266h17q21 126 110 546q44 201 74 349l29 129h370l27 -129l65 -304q4 -19 22 -100.5t32 -146.5q39 -181 67 -344h15q43 208 176 788l22 98l33 138h379l-395 -1434h-412l-209 989h-14l-211 -989
h-412zM1274 1743l-72 -182l-661 245l84 205z" />
    <glyph glyph-name="wgrave" unicode="&#x1e81;" horiz-adv-x="1781" 
d="M354 0l-352 1057h358l60 -197l31 -106q67 -228 102 -375h10q32 129 103 403l20 78l53 197h303l56 -197q75 -289 121 -481h12q26 108 49 189q23 85 39 143q26 87 43 149l61 197h357l-350 -1057h-351l-182 659h-12l-180 -659h-351zM1145 1366l-72 -182l-661 246l84 204z
" />
    <glyph glyph-name="Wacute" unicode="&#x1e82;" horiz-adv-x="2041" 
d="M391 0l-393 1434h379l33 -138q36 -171 86 -378q10 -49 53 -242q37 -167 57 -266h17q21 126 110 546q44 201 74 349l29 129h370l27 -129l65 -304q4 -19 22 -100.5t32 -146.5q39 -181 67 -344h15q43 208 176 788l22 98l33 138h379l-395 -1434h-412l-209 989h-14l-211 -989
h-412zM1499 1806l-663 -245l-70 182l649 268z" />
    <glyph glyph-name="wacute" unicode="&#x1e83;" horiz-adv-x="1781" 
d="M354 0l-352 1057h358l60 -197l31 -106q67 -228 102 -375h10q32 129 103 403l20 78l53 197h303l56 -197q75 -289 121 -481h12q26 108 49 189q23 85 39 143q26 87 43 149l61 197h357l-350 -1057h-351l-182 659h-12l-180 -659h-351zM1370 1430l-663 -246l-70 182l649 268z
" />
    <glyph glyph-name="Wdieresis" unicode="&#x1e84;" horiz-adv-x="2041" 
d="M391 0l-393 1434h379l33 -138q36 -171 86 -378q10 -49 53 -242q37 -167 57 -266h17q21 126 110 546q44 201 74 349l29 129h370l27 -129l65 -304q4 -19 22 -100.5t32 -146.5q39 -181 67 -344h15q43 208 176 788l22 98l33 138h379l-395 -1434h-412l-209 989h-14l-211 -989
h-412zM1122 1612q-47 47 -47 112t47 114q46 48 115 48q68 0 114 -46t46 -116q0 -67 -46 -113t-114 -46t-115 47zM692 1610q-47 47 -47 112t47 114q46 48 115 48t115 -46q47 -47 47 -116q0 -66 -47 -113q-46 -46 -115 -46q-68 0 -115 47z" />
    <glyph glyph-name="wdieresis" unicode="&#x1e85;" horiz-adv-x="1781" 
d="M354 0l-352 1057h358l60 -197l31 -106q67 -228 102 -375h10q32 129 103 403l20 78l53 197h303l56 -197q75 -289 121 -481h12q26 108 49 189q23 85 39 143q26 87 43 149l61 197h357l-350 -1057h-351l-182 659h-12l-180 -659h-351zM991 1235q-47 47 -47 113q0 64 47 113
q47 48 115 48t114 -46t46 -115q0 -68 -46 -114t-114 -46t-115 47zM561 1233q-47 47 -47 113q0 64 47 113q47 48 115 48q69 0 115 -46q47 -47 47 -115q0 -67 -47 -114q-46 -46 -115 -46q-68 0 -115 47z" />
    <glyph glyph-name="uni1E9E" unicode="&#x1e9e;" horiz-adv-x="1394" 
d="M920 784q218 -8 328 -106q112 -100 112 -266q0 -201 -142 -315q-141 -113 -407 -113q-138 0 -207 6v278q77 -8 154 -8q105 0 168 48t63 126q0 84 -57 124q-56 40 -154 40h-172v242h162q95 0 142 43q48 43 48 121q0 72 -45 113q-44 40 -129 40h-313v-1157h-362v1434h798
q201 0 311 -81q109 -81 109 -229q0 -166 -105 -242t-302 -81v-17z" />
    <glyph glyph-name="Ygrave" unicode="&#x1ef2;" horiz-adv-x="1415" 
d="M1417 1434l-524 -865v-569h-365v569l-530 865h408l92 -158q152 -260 213 -387h14q72 149 211 395l86 150h395zM973 1743l-72 -182l-661 245l84 205z" />
    <glyph glyph-name="ygrave" unicode="&#x1ef3;" horiz-adv-x="1157" 
d="M590 281q92 353 153 555l66 221h346l-391 -1088q-50 -143 -124 -226q-72 -81 -174 -114q-99 -32 -247 -32q-39 0 -170 8v250q79 -7 115 -7q84 0 128 25q40 23 68 88l19 43l-377 1053h358l68 -228q105 -360 152 -548h10zM834 1366l-72 -182l-662 246l84 204z" />
    <glyph glyph-name="endash" unicode="&#x2013;" horiz-adv-x="1097" 
d="M1040 436h-983v277h983v-277z" />
    <glyph glyph-name="emdash" unicode="&#x2014;" horiz-adv-x="1980" 
d="M1923 436h-1866v277h1866v-277z" />
    <glyph glyph-name="quoteleft" unicode="&#x2018;" horiz-adv-x="600" 
d="M532 1434l-129 -709h-335l227 709h237z" />
    <glyph glyph-name="quoteright" unicode="&#x2019;" horiz-adv-x="600" 
d="M68 725l129 709h335l-229 -709h-235z" />
    <glyph glyph-name="quotesinglbase" unicode="&#x201a;" horiz-adv-x="600" 
d="M68 -342l129 709h335l-229 -709h-235z" />
    <glyph glyph-name="quotedblleft" unicode="&#x201c;" horiz-adv-x="1046" 
d="M532 1434l-129 -709h-335l227 709h237zM979 1434l-129 -709h-336l227 709h238z" />
    <glyph glyph-name="quotedblright" unicode="&#x201d;" horiz-adv-x="1046" 
d="M68 725l129 709h335l-229 -709h-235zM514 725l129 709h336l-229 -709h-236z" />
    <glyph glyph-name="quotedblbase" unicode="&#x201e;" horiz-adv-x="1046" 
d="M68 -342l129 709h335l-229 -709h-235zM514 -342l129 709h336l-229 -709h-236z" />
    <glyph glyph-name="dagger" unicode="&#x2020;" horiz-adv-x="1249" 
d="M807 1016h418v-277h-418v-1063h-365v1063h-417v277h417v418h365v-418z" />
    <glyph glyph-name="daggerdbl" unicode="&#x2021;" horiz-adv-x="1249" 
d="M1225 1016v-277h-418v-370h418v-279h-418v-414h-365v414h-417v279h417v370h-417v277h417v418h365v-418h418z" />
    <glyph glyph-name="bullet" unicode="&#x2022;" horiz-adv-x="892" 
d="M274 291q-77 43 -121 120t-44 171q0 91 44 167q42 73 121 117q77 43 175 43q93 0 169 -43q78 -44 120 -117q44 -76 44 -167q0 -94 -44 -171t-120 -120t-169 -43q-98 0 -175 43z" />
    <glyph glyph-name="ellipsis" unicode="&#x2026;" horiz-adv-x="1654" 
d="M128 29q-60 60 -60 147q0 88 60 147q59 58 151 58q88 0 147 -58t59 -147q0 -88 -58 -147q-59 -60 -148 -60q-91 0 -151 60zM679 29q-61 61 -61 147q0 88 61 147q59 58 150 58q89 0 148 -58t59 -147q0 -88 -58 -147q-58 -60 -149 -60q-90 0 -150 60zM1230 29
q-61 61 -61 147q0 88 61 147q59 58 150 58q89 0 148 -58t59 -147q0 -88 -58 -147q-59 -60 -149 -60t-150 60z" />
    <glyph glyph-name="perthousand" unicode="&#x2030;" horiz-adv-x="2693" 
d="M133 709q-92 112 -92 319q0 210 92 322q91 110 275 110t275 -110t91 -322q0 -207 -92 -319q-92 -111 -274 -111q-183 0 -275 111zM659 0h-208l766 1434h208zM507 852q28 65 28 176q0 116 -28 180q-27 62 -99 62q-75 0 -102 -64q-27 -63 -27 -178q0 -118 28 -178
q29 -62 101 -62t99 64zM2009 86q-92 112 -92 320q0 209 92 321q91 111 275 111t276 -111q92 -112 92 -321q0 -208 -92 -320q-92 -111 -276 -111t-275 111zM1194 82q-92 112 -92 319q0 210 92 322q92 111 274 111q184 0 275 -111q92 -112 92 -322q0 -207 -92 -319
q-91 -111 -275 -111q-182 0 -274 111zM2384 229q29 64 29 177q0 117 -29 180q-28 61 -100 61q-75 0 -102 -63t-27 -178q0 -119 28 -179q28 -61 101 -61q72 0 100 63zM1568 226q27 63 27 175q0 119 -27 181q-27 61 -100 61q-74 0 -101 -62q-28 -65 -28 -180q0 -116 29 -177
q28 -60 100 -60q73 0 100 62z" />
    <glyph glyph-name="guilsinglleft" unicode="&#x2039;" horiz-adv-x="565" 
d="M260 537q36 -21 95 -60q36 -24 77 -59l25 -19v-307l-348 285v328l348 284v-307l-27 -20q-94 -76 -170 -115v-10z" />
    <glyph glyph-name="guilsinglright" unicode="&#x203a;" horiz-adv-x="565" 
d="M305 547q-76 39 -170 115l-26 20v307l348 -284v-328l-348 -285v307l24 19q41 35 77 59q59 39 95 60v10z" />
    <glyph glyph-name="uni203D" unicode="&#x203d;" horiz-adv-x="1130" 
d="M659 881q17 27 46 67q28 40 28 101q0 70 -43 107q-44 38 -125 38q-106 0 -150 -50t-44 -171h-336q0 261 138 379q137 118 402 118q231 0 374 -100q145 -101 145 -285q0 -207 -211 -352q-77 -53 -115 -86q-33 -28 -46 -65q-14 -38 -15 -105h-320q0 121 12 207l78 414h148
l22 -215zM396 27q-60 60 -60 147q0 88 60 147q59 58 151 58q88 0 147 -58q60 -59 60 -147q0 -86 -59 -147q-59 -60 -148 -60q-91 0 -151 60z" />
    <glyph glyph-name="fraction" unicode="&#x2044;" horiz-adv-x="636" 
d="M35 0h-199l766 1434h199z" />
    <glyph glyph-name="uni2070" unicode="&#x2070;" horiz-adv-x="837" 
d="M134 1182q-93 118 -93 321q0 207 93 325t286 118q190 0 283 -119q94 -120 94 -324q0 -202 -94 -322q-93 -118 -283 -118q-193 0 -286 119zM565 1503q0 277 -145 277q-78 0 -113 -69q-35 -70 -35 -208q0 -136 35 -206q34 -68 113 -68q145 0 145 274z" />
    <glyph glyph-name="uni2074" unicode="&#x2074;" horiz-adv-x="819" 
d="M678 1087h-225v173h-406v210l385 465h244v-510h112v-165h-110v-173zM217 1425h244v322h-10q-17 -43 -51 -90q-58 -78 -93 -121z" />
    <glyph glyph-name="uni2075" unicode="&#x2075;" horiz-adv-x="749" 
d="M644 1570q81 -79 81 -208q0 -96 -47 -166q-46 -68 -125 -106q-77 -37 -166 -37q-153 0 -249 68t-107 200h209q15 -111 143 -111q63 0 97 37t34 109q0 66 -37 104q-38 39 -96 39q-54 0 -86 -19q-33 -19 -51 -65l-199 45l82 467h537v-168h-363l-43 -209l8 -2q18 45 63 73
t113 28q122 0 202 -79z" />
    <glyph glyph-name="uni2076" unicode="&#x2076;" horiz-adv-x="765" 
d="M248 1516q15 57 64 94t145 37q121 0 203 -77q81 -76 81 -208q0 -144 -99 -220q-100 -77 -243 -77q-175 0 -270 109q-94 107 -94 311q0 221 93 343t273 122q121 0 216 -58q93 -57 110 -182h-201q-12 41 -41 62q-27 20 -84 20q-88 0 -126 -70q-37 -67 -35 -206h8zM499 1266
q36 38 36 92q0 58 -36 95q-36 38 -100 38q-62 0 -100 -38q-37 -37 -37 -95q0 -55 36 -91q37 -37 101 -38q64 0 100 37z" />
    <glyph glyph-name="uni2077" unicode="&#x2077;" horiz-adv-x="686" 
d="M522 1769h-491v166h624v-182q-97 -98 -152 -192q-54 -91 -78 -202q-23 -107 -28 -269h-231q4 216 96 395q90 176 260 276v8z" />
    <glyph glyph-name="uni2078" unicode="&#x2078;" horiz-adv-x="786" 
d="M127 1127q-94 63 -94 184q0 83 44 141t132 74v10q-65 11 -103 58t-38 126q0 104 88 167t241 63q151 0 236 -63q86 -63 86 -167q0 -76 -42 -125q-41 -48 -104 -59v-10q88 -17 134 -75q47 -59 47 -140q0 -121 -95 -184q-93 -62 -262 -62q-177 0 -270 62zM487 1619
q33 30 33 77q0 48 -35 74t-92 26q-56 0 -93 -26q-36 -26 -36 -74q0 -47 34 -77q35 -30 99 -30q57 0 90 30zM499 1257q38 29 38 84q0 51 -39 81t-101 30q-68 0 -109 -29q-40 -28 -40 -82q0 -56 40 -84t109 -28q65 0 102 28z" />
    <glyph glyph-name="uni2079" unicode="&#x2079;" horiz-adv-x="761" 
d="M518 1493q-15 -59 -65 -95q-52 -38 -144 -38q-123 0 -204 78q-80 77 -80 213q0 140 100 216q101 77 242 77q175 0 269 -109q93 -108 93 -313q0 -220 -92 -342q-91 -121 -272 -121q-126 0 -217 56q-93 57 -109 181h201q11 -37 40 -59q26 -20 85 -20q88 0 125 68
q38 69 36 206zM266 1742q-35 -37 -35 -91q0 -59 37 -97t99 -38q63 0 100 37t37 98q0 55 -37 91t-105 36q-62 0 -96 -36z" />
    <glyph glyph-name="uni2080" unicode="&#x2080;" horiz-adv-x="837" 
d="M134 -307q-93 119 -93 321q0 206 93 325q93 118 286 118q190 0 283 -119q94 -120 94 -324q0 -202 -94 -322q-93 -118 -283 -118q-193 0 -286 119zM565 14q0 277 -145 277q-78 0 -113 -69q-35 -70 -35 -208q0 -135 35 -205q35 -69 113 -69q145 0 145 274z" />
    <glyph glyph-name="uni2081" unicode="&#x2081;" horiz-adv-x="512" 
d="M229 186q-28 -49 -68 -71q-41 -23 -116 -23h-14v197q110 0 175 38q64 37 79 109h176v-846h-223v596h-9z" />
    <glyph glyph-name="uni2082" unicode="&#x2082;" horiz-adv-x="745" 
d="M29 -229l127 86q130 85 195 135t102 97q36 46 36 99q0 52 -29 77q-31 26 -79 26q-55 0 -89 -33q-35 -33 -36 -92h-215q1 142 97 218q94 75 253 75q140 0 230 -69t90 -197q0 -84 -40 -143t-108 -109q-57 -42 -203 -131q-25 -17 -28 -19q-7 -4 -27 -16l4 -11q72 11 193 11
h198v-185h-671v181z" />
    <glyph glyph-name="uni2083" unicode="&#x2083;" horiz-adv-x="772" 
d="M543 51q87 -6 147 -61q60 -56 60 -144q0 -129 -93 -201q-92 -71 -260 -71q-161 0 -264 74q-102 74 -104 233h215q-1 -72 37 -107.5t116 -35.5q59 0 91 30t32 78q0 109 -125 109h-73v154h84q108 0 108 90q0 42 -32 68t-83 26q-60 0 -95 -29q-34 -28 -36 -98h-215
q1 165 103 229t256 64q143 0 229 -65t86 -169q0 -71 -49 -117q-51 -48 -135 -49v-8z" />
    <glyph glyph-name="uni2084" unicode="&#x2084;" horiz-adv-x="819" 
d="M678 -410h-225v172h-406v211l385 465h244v-510h112v-166h-110v-172zM217 -72h244v322h-10q-17 -44 -51 -90q-58 -78 -93 -121z" />
    <glyph glyph-name="uni2085" unicode="&#x2085;" horiz-adv-x="749" 
d="M644 91q81 -79 81 -208q0 -96 -47 -166q-46 -68 -125 -106q-77 -37 -166 -37q-151 0 -249 69q-96 68 -107 199h209q15 -110 143 -110q63 0 97 37t34 108q0 67 -37 105t-96 38q-54 0 -86 -19q-33 -20 -51 -64l-199 45l82 467h537v-168h-363l-43 -209l8 -2q18 44 63 72
t113 28q122 0 202 -79z" />
    <glyph glyph-name="uni2086" unicode="&#x2086;" horiz-adv-x="765" 
d="M248 23q15 57 64 94t145 37q121 0 203 -77q81 -77 81 -208q0 -143 -99 -220q-100 -77 -243 -77q-175 0 -270 109q-94 107 -94 311q0 222 93 343q93 122 273 122q121 0 216 -58q93 -57 110 -182h-201q-12 41 -41 62q-27 20 -84 20q-88 0 -126 -70q-37 -67 -35 -206h8z
M499 -227q36 38 36 92q0 57 -36 95t-100 38q-62 0 -100 -38q-37 -37 -37 -95q0 -55 36 -91q37 -37 101 -38q64 0 100 37z" />
    <glyph glyph-name="uni2087" unicode="&#x2087;" horiz-adv-x="686" 
d="M522 270h-491v166h624v-182q-95 -96 -152 -193q-54 -91 -78 -201q-23 -107 -28 -270h-231q4 218 96 396q90 176 260 276v8z" />
    <glyph glyph-name="uni2088" unicode="&#x2088;" horiz-adv-x="786" 
d="M127 -364q-94 63 -94 184q0 83 44 141t132 74v10q-65 11 -103 58t-38 126q0 104 88 167q89 63 241 63q151 0 236 -63q86 -63 86 -167q0 -75 -42 -125q-41 -48 -104 -59v-10q88 -17 134 -75q47 -59 47 -140q0 -121 -95 -184q-93 -62 -262 -62q-177 0 -270 62zM487 128
q33 30 33 77q0 49 -35 75q-34 25 -92 25t-93 -25q-36 -26 -36 -75q0 -47 34 -77t99 -30q57 0 90 30zM499 -233q38 29 38 83q0 51 -39 81t-101 30q-68 0 -109 -29q-40 -28 -40 -82q0 -55 40 -83q41 -29 109 -29q64 0 102 29z" />
    <glyph glyph-name="uni2089" unicode="&#x2089;" horiz-adv-x="761" 
d="M518 12q-15 -59 -65 -95q-52 -38 -144 -38q-123 0 -204 78q-80 77 -80 213q0 140 100 216q101 77 242 77q175 0 269 -109q93 -108 93 -313q0 -220 -92 -342q-91 -121 -272 -121q-126 0 -217 56q-92 57 -109 182h201q12 -38 40 -60q26 -20 85 -20q88 0 125 68
q38 69 36 206zM266 261q-35 -37 -35 -91q0 -58 37 -96q38 -39 99 -39q62 0 100 38q37 37 37 97q0 55 -37 91t-105 36q-62 0 -96 -36z" />
    <glyph glyph-name="uni208D" unicode="&#x208d;" horiz-adv-x="380" 
d="M168 -555q-68 159 -95 283q-28 129 -28 288q0 163 28 295q27 125 95 285h213q-117 -304 -117 -580q0 -262 117 -571h-213z" />
    <glyph glyph-name="uni208E" unicode="&#x208e;" horiz-adv-x="380" 
d="M0 -555q117 309 117 571q0 276 -117 580h213q68 -160 95 -285q28 -132 28 -295q0 -159 -28 -288q-27 -124 -95 -283h-213z" />
    <glyph glyph-name="franc" unicode="&#x20a3;" horiz-adv-x="1112" 
d="M1087 1434v-277h-593v-285h536v-270h-536v-231h258v-135h-258v-236h-363v236h-131v135h131v1063h956z" />
    <glyph glyph-name="lira" unicode="&#x20a4;" horiz-adv-x="1220" 
d="M502 276h676v-276h-1149v276h110v226h-110v135h110v94h-110v135h110v154q0 220 142 335q140 113 383 113q245 0 374 -120q132 -123 138 -357h-338q-2 107 -44 154t-124 47q-86 0 -127 -45q-41 -46 -41 -148v-133h487v-135h-487v-94h487v-135h-487v-226z" />
    <glyph glyph-name="uni20A6" unicode="&#x20a6;" horiz-adv-x="1587" 
d="M1587 805v-135h-133v-670h-381l-328 543l-75 127h-189v-172v-498h-348v670h-133v135h133v629h393l342 -557l45 -72h187v127v502h354v-629h133zM590 805q-53 95 -96 170l-17 -4q2 -76 2 -166h111zM1106 506q-4 101 -4 164h-109l25 -43l72 -125z" />
    <glyph glyph-name="peseta" unicode="&#x20a7;" horiz-adv-x="1476" 
d="M1477 1004v-136h-136q-28 -183 -177 -290t-371 -107h-297v-471h-363v868h-133v136h133v430h676q227 0 373 -114t164 -316h131zM496 1157v-153h479q-21 73 -86 113t-160 40h-233zM729 717q95 0 160 40t86 111h-479v-151h233z" />
    <glyph glyph-name="uni20A8" unicode="&#x20a8;" horiz-adv-x="2519" 
d="M1372 0h-362l-43 309q-11 79 -34 117t-72 53q-48 15 -140 15h-250v-494h-362v1434h768q217 0 338 -94q120 -93 120 -265q0 -154 -104 -252q-103 -97 -277 -108v-15q119 -2 188 -28q70 -27 109 -88q40 -63 56 -166zM760 737q100 0 162 60q61 60 61 157q0 90 -61 147
q-60 56 -162 56h-289v-420h289zM1576 66q-141 99 -142 284h323q5 -78 63 -120t167 -42q85 0 133 28q47 27 47 77q0 36 -32 60q-31 24 -112 42l-219 43q-169 30 -260 113q-90 83 -90 207q0 98 60 174t172 117t260 41q252 0 390 -100q136 -99 136 -288h-309q0 78 -53 122
t-146 44q-86 0 -134 -27t-48 -75q0 -74 129 -102l250 -52q333 -69 333 -307q0 -164 -133 -251t-381 -87q-263 0 -404 99z" />
    <glyph glyph-name="uni20A9" unicode="&#x20a9;" horiz-adv-x="2031" 
d="M2038 1434l-183 -666h170v-135h-206l-174 -633h-412l-133 633h-168l-133 -633h-412l-174 633h-205v135h168l-182 666h379l33 -138l118 -528h164l49 231l66 306l28 129h369l29 -129l65 -306l49 -231h164q34 156 119 528l33 138h379zM1008 989l-47 -221h110l-47 221h-16z
M618 410q37 203 41 223h-104l47 -223h16zM1430 410l47 223h-105q4 -20 41 -223h17z" />
    <glyph glyph-name="Euro" unicode="&#x20ac;" horiz-adv-x="1531" 
d="M1049 315q76 67 94 199h354q-38 -261 -208 -401q-172 -142 -433 -142q-277 0 -454 153t-226 408h-176v136h162q-2 22 -2 49q0 42 2 74h-162v135h182q52 244 226 391q172 145 432 145q274 0 444 -135t213 -399h-358q-21 126 -93 192t-194 66q-245 0 -307 -260h356v-135
h-375q-2 -30 -2 -68q0 -31 2 -55h375v-136h-360q55 -284 301 -284q131 0 207 67z" />
    <glyph glyph-name="uni20AD" unicode="&#x20ad;" horiz-adv-x="1525" 
d="M1087 645l437 -645h-428l-410 616l-190 -190v-426h-363v645h-133v135h133v654h363l-11 -635l15 -4q44 76 130 177q64 75 208 230l227 232h440l-565 -572l55 -82h486v-135h-394z" />
    <glyph glyph-name="uni20AE" unicode="&#x20ae;" horiz-adv-x="1296" 
d="M1272 1434v-277h-438v-246l245 105v-150l-245 -104v-166l245 104v-149l-245 -105v-446h-363v293l-250 -107v150l250 106v166l-250 -106v149l250 107v399h-446v277h1247z" />
    <glyph glyph-name="uni20B1" unicode="&#x20b1;" horiz-adv-x="1476" 
d="M1477 1071v-102h-131v-17q0 -16 -3 -49h134v-102h-154q-50 -154 -190 -242t-340 -88h-299v-471h-363v801h-131v102h131v66h-131v102h131v363h678q203 0 345 -97q140 -95 179 -266h144zM494 1157v-86h446q-68 86 -211 86h-235zM979 969h-485v-66h485q2 14 2 33t-2 33z
M729 717q143 0 209 84h-444v-84h235z" />
    <glyph glyph-name="uni20B2" unicode="&#x20b2;" horiz-adv-x="1601" 
d="M958 770h555v-770h-296l-15 336h-16q-28 -123 -112 -219q-81 -93 -224 -131v-236h-139v217h-19q-180 0 -327 87t-233 257q-85 169 -85 406q0 219 81 382t230 257q147 93 353 108v219h139v-219q271 -15 436 -152q167 -138 197 -382h-371q-17 105 -82 172q-66 67 -172 82
v-938q135 7 222 81q86 72 98 183l2 16h-222v244zM498 400q77 -116 221 -144v926q-141 -22 -219 -144t-78 -321q0 -202 76 -317z" />
    <glyph glyph-name="uni20B3" unicode="&#x20b3;" horiz-adv-x="1509" 
d="M1511 0h-383l-98 291h-565l-96 -291h-371l106 291h-90v135h140l45 121h-185v135h234l274 752h449l282 -752h244v-135h-192l47 -121h145v-135h-96zM594 682h305l-37 111q-68 211 -108 358h-17q-45 -169 -108 -360zM549 547l-41 -121h477l-41 121h-395z" />
    <glyph glyph-name="uni20B4" unicode="&#x20b4;" horiz-adv-x="1492" 
d="M1493 897v-135h-1493v135h885q62 23 89 53t27 78q0 77 -71 115q-72 39 -180 39q-132 0 -208 -48t-87 -149h-344q18 240 189 360q170 119 448 119q182 0 324 -50q140 -49 217 -143t77 -222q0 -89 -51 -152h178zM0 543v135h1493v-135h-889q-65 -23 -98 -56q-31 -31 -31 -79
q0 -76 72 -115t180 -39q274 0 297 197h342q-18 -239 -189 -361q-170 -121 -446 -121q-186 0 -327 51q-139 50 -217 145q-76 92 -76 222q0 93 57 156h-168z" />
    <glyph glyph-name="uni20B5" unicode="&#x20b5;" horiz-adv-x="1511" 
d="M844 252q111 21 178 103t78 212h366q-17 -265 -180 -422q-164 -158 -442 -176v-219h-139v219q-310 23 -484 219t-174 529q0 334 174 529t484 218v219h139v-219q278 -18 443 -177q164 -158 179 -423h-366q-12 130 -80 213q-67 82 -176 105v-930zM498 399q72 -120 207 -147
v930q-133 -22 -207 -144t-74 -321q0 -196 74 -318z" />
    <glyph glyph-name="uni20B8" unicode="&#x20b8;" horiz-adv-x="1298" 
d="M1274 1157h-1249v277h1249v-277zM831 0h-364v682h-442v276h1249v-276h-443v-682z" />
    <glyph glyph-name="uni20B9" unicode="&#x20b9;" horiz-adv-x="1300" 
d="M1253 1298h-268l-2 -16q48 -42 69 -88t21 -117q0 -26 -4 -59h184v-135h-233q-50 -74 -134 -117q-83 -42 -194 -47v-14q168 -1 248 -63q77 -60 100 -204l70 -438h-365l-45 330q-11 71 -32 105q-22 35 -72 49q-51 14 -143 14h-344v243h385q84 0 142 38q56 37 77 104h-604
v135h604q-21 68 -77 103q-57 36 -142 36h-385v277h1144v-136z" />
    <glyph glyph-name="uni20BA" unicode="&#x20ba;" horiz-adv-x="1349" 
d="M1305 762q0 -234 -97 -408q-95 -171 -273 -263q-176 -91 -411 -91h-362v596l-162 -70v150l162 69v166l-162 -69v149l162 70v373h362v-220l334 142v-150l-334 -141v-166l334 141v-149l-334 -141v-465q197 0 302 124q106 126 106 353h373z" />
    <glyph glyph-name="uni20BC" unicode="&#x20bc;" horiz-adv-x="1630" 
d="M983 1087q294 -11 426 -146q133 -136 133 -402v-539h-350v545q0 125 -55 192q-56 68 -154 68v-705h-336v705q-99 0 -152 -69q-53 -70 -53 -191v-545h-354v539q0 267 138 403q139 138 421 145v347h336v-347z" />
    <glyph glyph-name="uni20BF" unicode="&#x20bf;" horiz-adv-x="1394" 
d="M1242 122q-119 -105 -345 -120v-242h-137v240h-182v-240h-140v240h-329v1434h329v278h140v-278h182v278h137v-278h10q201 0 311 -83q109 -82 109 -235q0 -147 -102 -230q-102 -82 -289 -87v-15q211 -7 317 -109q107 -102 107 -255q0 -193 -118 -298zM913 1118
q-45 39 -135 39h-307v-317h291q98 0 147 43t49 123q0 73 -45 112zM801 276q89 0 138 43q50 44 50 121q0 72 -51 114t-139 42h-328v-320h330z" />
    <glyph glyph-name="uni2116" unicode="&#x2116;" horiz-adv-x="2486" 
d="M1778 641q-98 52 -153 153q-54 99 -54 230q0 132 54 231q54 100 153 152q100 53 227 53q200 0 317 -120t117 -316q0 -132 -55 -230q-57 -102 -154 -153q-100 -53 -225 -53q-127 0 -227 53zM453 971q4 -153 4 -473v-498h-348v1434h393l342 -557q123 -198 221 -375l16 4
q-6 156 -6 426v502h355v-1434h-381l-328 543l-41 69q-121 201 -211 363zM2122 874q39 52 39 150t-40 150q-41 53 -116 53t-116 -53q-40 -52 -40 -150q0 -99 40 -151t116 -52q78 0 117 53zM2439 338h-868v172h868v-172z" />
    <glyph glyph-name="trademark" unicode="&#x2122;" horiz-adv-x="1222" 
d="M344 907h-139v420h-162v107h459v-107h-158v-420zM565 907v527h201l59 -189q34 -101 45 -149h4l46 153l57 185h203v-527h-138v213q0 30 5 172h-7q-27 -87 -45 -162l-67 -223h-109l-65 213l-49 170h-7q4 -59 4 -180v-203h-137z" />
    <glyph glyph-name="estimated" unicode="&#x212e;" horiz-adv-x="1861" 
d="M932 1473q376 0 602 -226q112 -112 168 -245q55 -131 55 -295h-1319q-28 0 -28 -27v-358q0 -68 32 -97q196 -196 490 -196q152 0 291 65q140 67 223 170h149q-89 -126 -262 -209q-168 -82 -401 -82q-370 0 -600 213q-230 212 -230 541q0 162 57 291q56 127 171 239
q222 216 602 216zM442 1214q-32 -29 -32 -90v-344q0 -26 28 -26h981q29 0 29 26v344q0 60 -33 90q-213 201 -483 201q-277 0 -490 -201z" />
    <glyph glyph-name="uni2150" unicode="&#x2150;" horiz-adv-x="1626" 
d="M229 1184q-29 -50 -68 -72q-40 -22 -116 -22h-14v196q110 0 175 38q64 37 79 110h176v-846h-223v596h-9zM436 0h-198l766 1434h198zM1462 680h-491v166h624v-182q-95 -96 -152 -193q-54 -91 -78 -202q-23 -107 -28 -269h-231q4 216 96 395q91 177 260 277v8z" />
    <glyph glyph-name="uni2151" unicode="&#x2151;" horiz-adv-x="1624" 
d="M229 1184q-29 -50 -68 -72q-40 -22 -116 -22h-14v196q110 0 175 38q64 37 79 110h176v-846h-223v596h-9zM436 0h-198l766 1434h198zM1380 412q-16 -60 -65 -96q-50 -37 -144 -37q-123 0 -203 77q-81 78 -81 213q0 140 100 216q101 77 242 77q176 0 269 -108t93 -314
q0 -220 -92 -342q-91 -121 -272 -121q-123 0 -216 57q-94 57 -110 181h201q11 -37 40 -59q27 -21 85 -21q89 0 126 69q38 69 36 206zM1128 660q-34 -35 -34 -91q0 -59 36 -96q38 -39 99 -39q62 0 100 38q37 37 37 97q0 55 -37 91t-104 36q-63 0 -97 -36z" />
    <glyph glyph-name="uni2152" unicode="&#x2152;" horiz-adv-x="2220" 
d="M229 1184q-29 -50 -68 -72q-40 -22 -116 -22h-14v196q110 0 175 38q64 37 79 110h176v-846h-223v596h-9zM436 0h-198l766 1434h198zM1100 596q-28 -50 -69 -72q-40 -22 -116 -22h-14v196q110 0 175 38q64 37 79 110h176v-846h-223v596h-8zM1517 96q-94 120 -94 322
q0 204 94 324q93 118 285 118q191 0 284 -119t93 -323t-93 -323q-93 -118 -284 -118q-192 0 -285 119zM1948 418q0 276 -146 276q-78 0 -112 -68q-35 -70 -35 -208q0 -136 35 -206q34 -69 112 -69q146 0 146 275z" />
    <glyph glyph-name="uni2153" unicode="&#x2153;" horiz-adv-x="1619" 
d="M229 1184q-29 -50 -68 -72q-40 -22 -116 -22h-14v196q110 0 175 38q64 37 79 110h176v-846h-223v596h-9zM436 0h-198l766 1434h198zM1391 453q86 -6 147 -62q59 -55 59 -143q0 -131 -92 -202t-260 -71q-161 0 -264 74q-102 74 -104 234h215q-1 -72 37 -108t116 -36
q59 0 91 30t32 79q0 108 -125 108h-74v154h84q109 0 109 90q0 43 -32 69q-31 25 -83 25q-61 0 -95 -28t-36 -99h-215q1 166 103 230q100 63 256 63q144 0 229 -64q86 -65 86 -169q0 -72 -49 -118q-50 -47 -135 -48v-8z" />
    <glyph glyph-name="uni2154" unicode="&#x2154;" horiz-adv-x="1873" 
d="M29 768l127 86q130 86 195 135q65 50 102 97q36 46 36 100q0 52 -29 77t-79 25q-55 0 -89 -33q-35 -33 -36 -92h-215q1 142 97 218q95 75 253 75q141 0 230 -68q90 -69 90 -198q0 -83 -40 -142q-41 -61 -108 -110q-57 -42 -203 -131q-25 -17 -28 -19q-7 -3 -27 -16l4 -10
q66 10 193 10h198v-184h-671v180zM690 0h-198l765 1434h199zM1645 453q86 -6 147 -62q59 -55 59 -143q0 -131 -92 -202t-260 -71q-161 0 -264 74q-103 75 -105 234h216q-1 -72 37 -108t116 -36q59 0 91 30t32 79q0 108 -125 108h-74v154h84q109 0 109 90q0 43 -32 69
q-31 25 -83 25q-61 0 -95 -28t-36 -99h-215q2 167 102 230q101 63 256 63q145 0 230 -64q86 -65 86 -169q0 -72 -49 -118q-50 -47 -135 -48v-8z" />
    <glyph glyph-name="uni2155" unicode="&#x2155;" horiz-adv-x="1603" 
d="M229 1184q-29 -50 -68 -72q-40 -22 -116 -22h-14v196q110 0 175 38q64 37 79 110h176v-846h-223v596h-9zM436 0h-198l766 1434h198zM1498 486q81 -80 81 -207q0 -96 -47 -166q-47 -69 -125 -107q-77 -37 -166 -37q-151 0 -249 69q-96 68 -107 200h209q15 -111 143 -111
q63 0 97 37t34 108q0 67 -37 105q-37 39 -96 39q-52 0 -86 -20q-33 -20 -51 -64l-199 45l82 467h537v-168h-363l-43 -209l8 -2q18 45 63 73q43 27 113 27q122 0 202 -79z" />
    <glyph glyph-name="uni2156" unicode="&#x2156;" horiz-adv-x="1857" 
d="M29 768l127 86q130 86 195 135q65 50 102 97q36 46 36 100q0 52 -29 77t-79 25q-55 0 -89 -33q-35 -33 -36 -92h-215q1 142 97 218q95 75 253 75q141 0 230 -68q90 -69 90 -198q0 -83 -40 -142q-41 -61 -108 -110q-57 -42 -203 -131q-25 -17 -28 -19q-7 -3 -27 -16l4 -10
q66 10 193 10h198v-184h-671v180zM690 0h-198l765 1434h199zM1752 486q81 -79 81 -207q0 -96 -47 -166q-47 -69 -125 -107q-77 -37 -166 -37q-151 0 -249 69q-96 68 -107 200h209q15 -111 143 -111q63 0 97 37t34 108q0 67 -37 105q-37 39 -96 39q-52 0 -86 -20
q-33 -20 -51 -64l-199 45l82 467h537v-168h-363l-43 -209l8 -2q18 45 63 73q43 27 113 27q122 0 202 -79z" />
    <glyph glyph-name="uni2157" unicode="&#x2157;" horiz-adv-x="1810" 
d="M543 1049q86 -6 147 -62q60 -55 60 -143q0 -130 -93 -202q-92 -71 -260 -71q-161 0 -264 74q-102 74 -104 234h215q-1 -72 37 -108t116 -36q59 0 91 30t32 79q0 108 -125 108h-73v154h84q108 0 108 90q0 43 -32 69q-31 25 -83 25q-61 0 -95 -28t-36 -99h-215
q1 166 103 230q100 63 256 63q144 0 229 -64q86 -65 86 -169q0 -72 -49 -118q-50 -47 -135 -48v-8zM643 0h-199l766 1434h199zM1705 486q81 -79 81 -207q0 -96 -47 -166q-47 -69 -125 -107q-77 -37 -166 -37q-152 0 -249 69q-96 68 -107 200h208q15 -111 144 -111
q63 0 97 37t34 108q0 67 -37 105q-38 39 -96 39q-52 0 -86 -20q-33 -20 -51 -64l-199 45l82 467h536v-168h-362l-43 -209l8 -2q18 45 63 73q44 27 113 27q122 0 202 -79z" />
    <glyph glyph-name="uni2158" unicode="&#x2158;" horiz-adv-x="1847" 
d="M678 586h-225v172h-406v211l385 465h244v-510h112v-166h-110v-172zM217 924h244v321h-10q-17 -43 -51 -90q-58 -78 -93 -121zM680 0h-199l766 1434h199zM1742 486q81 -79 81 -207q0 -96 -47 -166q-47 -69 -125 -107q-77 -37 -166 -37q-151 0 -249 69q-97 69 -108 200h209
q15 -111 144 -111q63 0 97 37t34 108q0 67 -37 105q-37 39 -96 39q-52 0 -86 -20q-35 -20 -52 -64l-198 45l82 467h536v-168h-362l-43 -209l8 -2q18 46 62 73t114 27q122 0 202 -79z" />
    <glyph glyph-name="uni2159" unicode="&#x2159;" horiz-adv-x="1589" 
d="M229 1184q-29 -50 -68 -72q-40 -22 -116 -22h-14v196q110 0 175 38q64 37 79 110h176v-846h-223v596h-9zM436 0h-198l766 1434h198zM1071 426q15 56 65 94q49 37 144 37q122 0 204 -77q81 -76 81 -208q0 -143 -100 -220t-242 -77q-176 0 -271 109q-94 107 -94 311
q0 222 93 343q93 122 274 122q123 0 216 -57q92 -57 109 -182h-200q-12 39 -41 61q-27 20 -84 20q-89 0 -126 -69q-38 -69 -36 -207h8zM1322 176q36 38 36 92q0 58 -36 96q-36 37 -99 37q-64 0 -101 -37t-37 -96q0 -55 36 -91q37 -37 102 -38q63 0 99 37z" />
    <glyph glyph-name="uni215A" unicode="&#x215a;" horiz-adv-x="1763" 
d="M644 1076q81 -79 81 -208q0 -96 -47 -166q-46 -68 -125 -106q-77 -37 -166 -37q-151 0 -249 69q-96 68 -107 199h209q15 -110 143 -110q63 0 97 37t34 108q0 67 -37 105q-38 39 -96 39q-52 0 -86 -20q-33 -20 -51 -64l-199 45l82 467h537v-168h-363l-43 -209l8 -2
q18 44 63 72t113 28q122 0 202 -79zM610 0h-198l766 1434h198zM1245 426q15 56 65 94q49 37 144 37q122 0 204 -77q81 -77 81 -208q0 -143 -100 -220t-242 -77q-176 0 -271 109q-94 107 -94 311q0 222 93 343q93 122 274 122q123 0 216 -57q92 -57 109 -182h-200
q-12 39 -41 61q-27 20 -84 20q-89 0 -126 -69q-38 -69 -36 -207h8zM1496 176q36 38 36 92q0 58 -36 96q-36 37 -99 37q-64 0 -101 -37q-36 -36 -36 -96q0 -56 35 -91q37 -37 102 -38q63 0 99 37z" />
    <glyph glyph-name="oneeighth" unicode="&#x215b;" horiz-adv-x="1632" 
d="M229 1184q-29 -50 -68 -72q-40 -22 -116 -22h-14v196q110 0 175 38q64 37 79 110h176v-846h-223v596h-9zM424 0h-199l766 1434h199zM954 38q-94 63 -94 183q0 83 44 141t132 74v10q-63 10 -102 59q-39 48 -39 126q0 104 88 167q87 62 242 62q151 0 235 -62
q86 -63 86 -167q0 -75 -42 -125t-103 -60v-10q87 -17 133 -75q47 -59 47 -140q0 -120 -94 -183q-95 -63 -262 -63q-177 0 -271 63zM1315 529q33 30 33 77q0 49 -35 75t-92 26t-94 -26q-35 -25 -35 -75q0 -48 33 -77t100 -29q58 0 90 29zM1326 168q38 29 38 84q0 51 -39 81
q-38 29 -100 29q-70 0 -110 -28t-40 -82q0 -56 40 -84q41 -29 110 -29q63 0 101 29z" />
    <glyph glyph-name="threeeighths" unicode="&#x215c;" horiz-adv-x="1828" 
d="M543 1049q86 -6 147 -62q60 -55 60 -143q0 -130 -93 -202q-92 -71 -260 -71q-161 0 -264 74q-102 74 -104 234h215q-1 -72 37 -108t116 -36q59 0 91 30t32 79q0 108 -125 108h-73v154h84q108 0 108 90q0 43 -32 69q-31 25 -83 25q-61 0 -95 -28t-36 -99h-215
q1 166 103 230q100 63 256 63q144 0 229 -64q86 -65 86 -169q0 -72 -49 -118q-50 -47 -135 -48v-8zM647 0h-198l765 1434h199zM1178 38q-95 63 -95 183q0 83 44 141q44 57 133 74v10q-64 11 -103 59t-39 126q0 104 88 167q87 62 242 62q151 0 235 -62q86 -63 86 -167
q0 -75 -42 -125t-103 -60v-10q87 -17 133 -75q47 -59 47 -140q0 -120 -94 -183t-262 -63q-176 0 -270 63zM1538 529q33 30 33 77q0 49 -35 75t-92 26q-56 0 -93 -26q-36 -25 -36 -75q0 -47 34 -77q33 -29 99 -29q58 0 90 29zM1549 168q38 29 38 84q0 51 -39 81
q-38 29 -100 29q-70 0 -110 -28t-40 -82q0 -56 40 -84q41 -29 110 -29q63 0 101 29z" />
    <glyph glyph-name="fiveeighths" unicode="&#x215d;" horiz-adv-x="1808" 
d="M644 1076q81 -79 81 -208q0 -96 -47 -166q-46 -68 -125 -106q-77 -37 -166 -37q-151 0 -249 69q-96 68 -107 199h209q15 -110 143 -110q63 0 97 37t34 108q0 67 -37 105q-38 39 -96 39q-52 0 -86 -20q-33 -20 -51 -64l-199 45l82 467h537v-168h-363l-43 -209l8 -2
q18 44 63 72t113 28q122 0 202 -79zM625 0h-199l766 1434h199zM1157 38q-94 63 -94 183q0 83 44 141t132 74v10q-63 10 -102 59q-39 48 -39 126q0 104 88 167q87 62 241 62q152 0 236 -62q86 -63 86 -167q0 -75 -42 -125t-103 -60v-10q87 -17 133 -75q47 -59 47 -140
q0 -120 -94 -183q-95 -63 -263 -63q-175 0 -270 63zM1518 529q32 29 32 77q0 50 -34 75q-35 26 -93 26q-56 0 -93 -26q-36 -25 -36 -75q0 -47 34 -77q33 -29 99 -29q59 0 91 29zM1529 168q38 29 38 84q0 51 -39 81q-38 29 -101 29q-69 0 -109 -28t-40 -82q0 -56 40 -84
q41 -29 109 -29q64 0 102 29z" />
    <glyph glyph-name="seveneighths" unicode="&#x215e;" horiz-adv-x="1660" 
d="M522 1268h-491v166h624v-183q-97 -98 -152 -192q-54 -91 -78 -202q-23 -107 -28 -269h-231q4 216 96 395q91 177 260 277v8zM451 0h-199l766 1434h199zM1004 38q-95 63 -95 183q0 83 44 141t132 74v10q-63 10 -102 59q-39 48 -39 126q0 104 88 167q87 62 242 62
q151 0 235 -62q86 -63 86 -167q0 -75 -42 -125t-103 -60v-10q87 -17 133 -75q47 -59 47 -140q0 -120 -94 -183t-262 -63q-176 0 -270 63zM1364 529q33 30 33 77q0 49 -35 75t-92 26q-56 0 -93 -26q-36 -25 -36 -75q0 -47 34 -77q33 -29 99 -29q58 0 90 29zM1375 168
q38 29 38 84q0 51 -39 81q-38 29 -100 29q-70 0 -110 -28t-40 -82q0 -56 40 -84q41 -29 110 -29q63 0 101 29z" />
    <glyph glyph-name="uni2189" unicode="&#x2189;" horiz-adv-x="1843" 
d="M134 690q-93 118 -93 322q0 206 93 324t286 118q190 0 283 -119q94 -120 94 -323t-94 -323q-93 -118 -283 -118q-193 0 -286 119zM565 1012q0 276 -145 276q-79 0 -113 -68q-35 -70 -35 -208q0 -136 35 -206q35 -69 113 -69q145 0 145 275zM659 0h-198l766 1434h198z
M1614 453q86 -6 147 -62q60 -56 60 -143q0 -131 -92 -202t-261 -71q-161 0 -264 74q-102 74 -104 234h215q-1 -72 37 -108t116 -36q60 0 92 30q31 30 31 79q0 108 -125 108h-73v154h84q108 0 108 90q0 43 -32 69q-31 25 -83 25q-61 0 -95 -28t-36 -99h-215q1 166 103 230
q101 63 256 63q144 0 229 -64q86 -65 86 -169q0 -72 -49 -118q-49 -47 -135 -48v-8z" />
    <glyph glyph-name="arrowleft" unicode="&#x2190;" horiz-adv-x="1687" 
d="M1028 1434q0 -233 -109 -361t-270 -180v-14h930v-314h-930v-18q158 -47 269 -180q110 -132 110 -367h-375q0 192 -134 332q-132 138 -415 256v258q283 118 415 256q134 140 134 332h375z" />
    <glyph glyph-name="arrowup" unicode="&#x2191;" horiz-adv-x="1685" 
d="M115 885q158 0 264 65q107 66 183 182q74 115 153 302h258q80 -190 151 -302q74 -116 182 -182q106 -65 263 -65v-365q-237 0 -363 106q-124 105 -174 263h-16v-889h-346v889h-15q-51 -158 -177 -263q-127 -106 -363 -106v365z" />
    <glyph glyph-name="arrowright" unicode="&#x2192;" horiz-adv-x="1687" 
d="M1034 1434q0 -192 134 -332q132 -138 415 -256v-258q-283 -118 -415 -256q-134 -140 -134 -332h-375q0 233 111 367t268 180v18h-929v314h929v14q-160 51 -269 180q-110 130 -110 361h375z" />
    <glyph glyph-name="arrowdown" unicode="&#x2193;" horiz-adv-x="1685" 
d="M115 913q237 0 363 -105t177 -263h15v889h346v-889h16q50 158 174 263t363 105v-364q-155 0 -263 -66q-109 -67 -182 -181q-71 -112 -151 -302h-258q-79 187 -153 302t-183 181q-108 66 -264 66v364z" />
    <glyph glyph-name="arrowboth" unicode="&#x2194;" horiz-adv-x="2322" 
d="M1774 1434q0 -192 134 -332q133 -139 414 -256v-258q-281 -117 -414 -256q-134 -140 -134 -332h-375q0 235 110 367q111 133 269 180v18h-1233v-18q157 -46 268 -180q111 -133 111 -367h-375q0 192 -134 332q-132 138 -415 256v258q283 118 415 256q134 140 134 332h375
q0 -231 -110 -361q-109 -129 -269 -180v-14h1233v14q-161 52 -270 180t-109 361h375z" />
    <glyph glyph-name="arrowupdn" unicode="&#x2195;" horiz-adv-x="1722" 
d="M1042 160h17q117 368 538 368v-364q-155 0 -263 -66q-107 -65 -182 -181q-73 -113 -151 -302h-260q-80 192 -152 302q-75 116 -182 181q-108 66 -264 66v364q238 0 364 -105q125 -104 175 -263h16v1030h-16q-50 -159 -175 -263q-127 -106 -364 -106v365q158 0 264 65
t182 182q72 110 152 302h260q78 -189 151 -302q76 -117 182 -182t263 -65v-365q-421 0 -538 369h-17v-1030z" />
    <glyph glyph-name="uni2196" unicode="&#x2196;" horiz-adv-x="1609" 
d="M1511 1151q-84 -98 -192 -140q-112 -44 -234 -44q-101 0 -192 23q-92 23 -160 59l-8 -9l776 -751l-227 -244l-789 764l-8 -6q74 -165 74 -332q0 -257 -176 -436l-250 250q162 163 162 411q0 203 -115 484l174 166q258 -113 477 -113q271 0 439 168z" />
    <glyph glyph-name="uni2197" unicode="&#x2197;" horiz-adv-x="1595" 
d="M348 1401q168 -168 438 -168q223 0 476 113l174 -166q-113 -274 -113 -482q0 -250 162 -413l-250 -250q-94 94 -136 207q-42 112 -42 231q0 172 73 330l-8 6l-788 -764l-228 244l779 751l-11 9q-69 -36 -158 -59t-192 -23q-121 0 -233 44q-110 43 -193 140z" />
    <glyph glyph-name="uni2198" unicode="&#x2198;" horiz-adv-x="1609" 
d="M100 276q82 99 193 142q110 43 233 43q99 0 192 -24q95 -24 159 -58l10 8l-778 752l227 243l788 -764l9 9q-74 160 -74 327q0 120 42 232q42 113 136 207l248 -250q-162 -163 -162 -412q0 -200 115 -483l-174 -164q-258 111 -476 111q-270 0 -440 -168z" />
    <glyph glyph-name="uni2199" unicode="&#x2199;" horiz-adv-x="1609" 
d="M1262 27q-170 168 -441 168q-217 0 -475 -111l-174 164q115 283 115 483q0 249 -162 412l250 250q92 -95 134 -206t42 -229q0 -171 -74 -331l8 -9l789 764l227 -243l-776 -752l8 -8q64 34 159 58q93 24 191 24q125 0 235 -43q111 -43 193 -142z" />
    <glyph glyph-name="uni21A9" unicode="&#x21a9;" horiz-adv-x="1861" 
d="M1615 708q-116 -110 -319 -110h-882v-6q74 -21 115 -83q43 -64 44 -200h-145q-1 91 -34 148q-31 54 -93 89q-59 33 -170 64v113q104 29 169 65q62 34 94 92q33 59 34 146h145q-2 -137 -44 -201q-43 -64 -115 -86v-6h864q146 0 228 74q81 73 81 207t-81 206t-228 72h-440
v135h458q204 0 319 -108q116 -108 116 -305q0 -196 -116 -306z" />
    <glyph glyph-name="uni21AA" unicode="&#x21aa;" horiz-adv-x="1861" 
d="M246 1319q114 108 319 108h459v-135h-440q-148 0 -229 -72t-81 -206t81 -207q82 -74 229 -74h864v6q-74 23 -116 86q-42 64 -44 201h146q1 -89 33 -146t95 -92q65 -36 169 -65v-113q-111 -31 -170 -64q-64 -36 -94 -89q-31 -55 -33 -148h-146q1 135 43 200q40 62 117 83
v6h-883q-204 0 -319 110t-115 306t115 305z" />
    <glyph glyph-name="uni21B0" unicode="&#x21b0;" horiz-adv-x="1767" 
d="M131 1268q104 29 169 65q62 34 94 90q33 57 34 146h145q-2 -137 -44 -199q-42 -61 -115 -82v-8h1222v-1280h-139v1145h-1083v-6q72 -22 115 -86q42 -64 44 -201h-145q-1 89 -34 148q-31 56 -93 91q-55 31 -170 66v111z" />
    <glyph glyph-name="uni21B1" unicode="&#x21b1;" horiz-adv-x="1767" 
d="M1636 1157q-115 -35 -170 -66q-62 -35 -93 -91q-33 -59 -34 -148h-145q2 137 44 201q42 63 116 86v6h-1084v-1145h-139v1280h1223v8q-75 21 -116 82q-42 62 -44 199h145q1 -89 34 -146q32 -56 94 -90q65 -36 169 -65v-111z" />
    <glyph glyph-name="uni21B2" unicode="&#x21b2;" horiz-adv-x="1767" 
d="M131 412q115 35 170 66q63 35 93 90q33 59 34 149h145q-2 -137 -44 -201q-43 -64 -115 -86v-6h1083v1145h139v-1280h-1222v-8q73 -21 115 -82q42 -62 44 -199h-145q-1 88 -34 145t-94 91q-65 36 -169 65v111z" />
    <glyph glyph-name="uni21B3" unicode="&#x21b3;" horiz-adv-x="1767" 
d="M1636 301q-104 -29 -169 -65q-61 -34 -94 -91t-34 -145h-145q2 137 44 199q41 61 116 82v8h-1223v1280h139v-1145h1084v6q-74 23 -116 86q-42 64 -44 201h145q1 -90 34 -149q30 -55 93 -90q55 -31 170 -66v-111z" />
    <glyph glyph-name="uni21B4" unicode="&#x21b4;" horiz-adv-x="1830" 
d="M1288 0q-35 115 -66 170q-35 63 -90 93q-59 33 -149 34v145q137 -2 201 -44q64 -43 86 -115h6v1147h-1145v139h1280v-1286h8q21 74 82 114t199 45v-145q-90 -1 -146 -35q-56 -33 -90 -94q-36 -63 -65 -168h-111z" />
    <glyph glyph-name="uni21BB" unicode="&#x21bb;" horiz-adv-x="2045" 
d="M230 1111q98 169 271 265q170 94 376 94q204 0 375 -93q172 -94 271 -264q99 -171 99 -390v-16h6q22 72 86 115q64 42 201 44v-145q-90 -1 -149 -34q-57 -31 -91 -94q-36 -65 -65 -169h-119q-34 111 -67 170q-35 62 -89 93q-57 33 -145 34v145q134 -1 198 -44
q61 -40 82 -115h9v16q0 185 -82 324t-220 214q-136 74 -300 74q-167 0 -303 -74q-138 -75 -219 -213t-81 -325t81 -328q81 -140 219 -217q137 -76 303 -76q128 0 252 48q118 46 202 133l99 -95q-110 -106 -254 -164q-141 -57 -299 -57q-198 0 -368 94q-172 95 -275 267
t-103 391q0 221 99 392z" />
    <glyph glyph-name="uni21C4" unicode="&#x21c4;" horiz-adv-x="1814" 
d="M1575 997h-1161v-6q73 -21 115 -84q43 -64 44 -200h-145q-1 90 -34 147q-31 54 -93 89q-59 33 -170 67v110q100 28 169 66q62 34 94 90q33 57 34 145h145q-1 -136 -44 -198q-42 -61 -115 -82v-8h1161v-136zM240 299v135h1161v8q-77 21 -117 82q-42 63 -43 199h145
q1 -88 34 -145t94 -91q65 -36 169 -65v-111q-115 -35 -170 -66q-62 -35 -93 -89q-33 -57 -34 -148h-145q2 137 44 201q42 63 116 84v6h-1161z" />
    <glyph glyph-name="uni21C5" unicode="&#x21c5;" horiz-adv-x="1677" 
d="M1257 49h-135v1161h-6q-22 -75 -86 -116q-65 -42 -201 -43v145q92 0 148 32t90 94q36 65 68 171h110q30 -107 65 -170q35 -62 90 -94q57 -33 146 -33v-145q-134 1 -199 43q-62 40 -83 116h-7v-1161zM559 1384v-1161h6q21 77 83 117q65 42 200 43v-145q-89 -1 -147 -35
q-55 -32 -90 -94q-33 -60 -64 -168h-111q-34 110 -67 171q-34 62 -90 94t-148 32v145q136 -1 201 -43q64 -41 86 -117h6v1161h135z" />
    <glyph glyph-name="partialdiff" unicode="&#x2202;" horiz-adv-x="1349" 
d="M1155 1345q125 -127 125 -350q0 -283 -92 -530q-85 -233 -254 -366q-168 -132 -393 -132q-138 0 -248 55q-109 54 -171 155q-63 102 -63 237q0 150 74 277t200 199q128 73 275 73q130 0 211 -73q80 -72 80 -202q0 -27 -2 -49l16 -2q27 152 34 210q9 75 9 144
q0 223 -186 223q-80 0 -137 -42q-59 -44 -88 -117h-332q67 199 221 308q152 107 367 107q230 0 354 -125zM706 257q58 41 93 115q35 73 35 158q0 99 -45 156q-43 55 -123 55q-74 0 -133 -43q-61 -44 -95 -115q-35 -73 -35 -155q0 -101 46 -158q45 -55 129 -55q70 0 128 42z
" />
    <glyph glyph-name="product" unicode="&#x220f;" horiz-adv-x="2054" 
d="M109 1434h1837v-285h-275v-1526h-362v1526h-564v-1526h-362v1526h-274v285z" />
    <glyph glyph-name="summation" unicode="&#x2211;" horiz-adv-x="1294" 
d="M51 -377v277l295 325q86 96 155 164q71 70 154 135v13q-83 64 -160 139q-71 69 -161 170l-283 309v279h1172v-320h-277q-316 0 -461 25l-8 -17q99 -72 318 -303l170 -184v-213l-160 -174q-223 -228 -328 -314l6 -16q153 25 463 25h297v-320h-1192z" />
    <glyph glyph-name="minus" unicode="&#x2212;" horiz-adv-x="1120" 
d="M57 868h1006v-274h-1006v274z" />
    <glyph glyph-name="radical" unicode="&#x221a;" horiz-adv-x="1593" 
d="M1595 1157h-182l-483 -1534h-438l-281 813h-188v277h456l49 -156q94 -327 168 -651h15q72 335 166 651l262 877h456v-277z" />
    <glyph glyph-name="infinity" unicode="&#x221e;" horiz-adv-x="1720" 
d="M247 362q-91 55 -141 152q-49 95 -49 215t51 219q51 98 141 150q92 53 210 53q127 0 235 -67t160 -187h12q55 121 161 188q105 66 235 66q120 0 212 -53q89 -51 140 -149q49 -94 49 -220q0 -125 -51 -220q-52 -97 -143 -149q-92 -53 -207 -53q-130 0 -238 69
q-109 70 -158 185h-12q-49 -118 -158 -186t-237 -68q-121 0 -212 55zM717 729q-117 184 -242 184q-69 0 -113 -53q-43 -52 -43 -131q0 -80 43 -132t113 -52q125 0 242 184zM1360 597q43 52 43 132q0 85 -43 134q-44 50 -115 50q-124 0 -241 -184q117 -184 241 -184
q72 0 115 52z" />
    <glyph glyph-name="integral" unicode="&#x222b;" horiz-adv-x="1079" 
d="M57 -410v260q111 -6 150 -6q85 0 122 39q39 40 40 125l8 1069q2 203 102 299q102 97 303 97q73 0 240 -11v-258l-150 4q-83 0 -122 -39q-40 -39 -41 -125l-9 -1069q0 -197 -108 -296t-295 -99q-89 0 -240 10z" />
    <glyph glyph-name="approxequal" unicode="&#x2248;" horiz-adv-x="1079" 
d="M57 766q1 165 78 267t219 102q59 0 113 -17t123 -47q38 -17 68 -27q34 -12 57 -12q48 0 69 26t29 79h209q-1 -168 -77 -269q-75 -100 -218 -100q-53 0 -104 16q-56 18 -121 45q-21 9 -42 17q-31 12 -56 18q-24 6 -39 6q-50 0 -69 -23q-20 -24 -30 -81h-209zM57 315
q1 166 78 268q76 101 219 101q62 0 113 -16q54 -17 123 -47q38 -17 68 -27q34 -12 57 -12q48 0 69 25q21 26 29 79h209q-1 -167 -77 -268q-75 -101 -218 -101q-50 0 -104 17q-56 18 -121 45q-3 1 -8.5 3t-15.5 6t-18 7q-38 15 -56 19q-24 6 -39 6q-49 0 -69 -24t-30 -81
h-209z" />
    <glyph glyph-name="notequal" unicode="&#x2260;" horiz-adv-x="1120" 
d="M1063 1065v-262h-424l-55 -148h479v-262h-576l-81 -219l-87 31l70 188h-332v262h428l56 148h-484v262h580l78 209l86 -31l-66 -178h328z" />
    <glyph glyph-name="lessequal" unicode="&#x2264;" horiz-adv-x="1079" 
d="M1022 303l-965 334v293l965 334v-279l-74 -24l-63 -21q-147 -47 -262 -80q-139 -40 -267 -69v-13q125 -32 424 -119q17 -5 73 -22q12 -4 26 -8t32.5 -9.5t30.5 -9.5l80 -28v-279zM1022 248v-248h-965v248h965z" />
    <glyph glyph-name="greaterequal" unicode="&#x2265;" horiz-adv-x="1079" 
d="M57 303v279l82 28q6 2 39.5 12t49.5 15q56 17 73 22q299 87 424 119v13q-218 52 -508 143l-86 27l-74 24v279l965 -334v-293zM1022 0h-965v248h965v-248z" />
    <glyph glyph-name="uni2460" unicode="&#x2460;" horiz-adv-x="1921" 
d="M478 -132q-220 126 -349 343t-129 479q0 264 129 481q129 218 349 342q221 125 483 125q263 0 484 -126t348 -343q128 -218 128 -479q0 -262 -129 -480q-130 -219 -350 -343q-221 -125 -481 -125q-263 0 -483 126zM1326 66q163 90 257 252q94 163 94 372q0 212 -94 376
q-95 165 -257 256q-163 91 -363 91q-205 0 -368 -93t-255 -258q-92 -166 -92 -372t93 -369q92 -162 256 -254t366 -92q198 0 363 91zM897 881q-31 -54 -74 -78q-45 -25 -127 -25h-16v213q120 0 191 42q70 42 85 120h195v-924h-246v652h-8z" />
    <glyph glyph-name="uni2461" unicode="&#x2461;" horiz-adv-x="1925" 
d="M478 -132q-220 126 -349 343t-129 479q0 264 129 481q129 218 349 342q221 125 483 125q263 0 484 -126t348 -343q128 -218 128 -479q0 -262 -129 -480q-130 -219 -350 -343q-221 -125 -481 -125q-263 0 -483 126zM1326 66q163 90 257 252q94 163 94 372q0 212 -94 376
q-95 165 -257 256q-163 91 -363 91q-205 0 -368 -93t-255 -258q-92 -166 -92 -372t93 -369q92 -162 256 -254t366 -92q198 0 363 91zM594 446l143 97q146 96 212 146q68 52 108 104q39 51 39 108q0 55 -32 84t-87 29q-59 0 -96 -36q-38 -36 -39 -101h-236q4 154 108 237
q103 82 275 82q154 0 252 -76t98 -215q0 -86 -44 -153t-115 -120q-78 -58 -217 -143q-12 -8 -36 -22q-18 -11 -30 -18l2 -11q82 11 211 11h217v-201h-733v198z" />
    <glyph glyph-name="uni2462" unicode="&#x2462;" horiz-adv-x="1925" 
d="M478 -132q-220 126 -349 343t-129 479q0 264 129 481q129 218 349 342q221 125 483 125q263 0 484 -126t348 -343q128 -218 128 -479q0 -262 -129 -480q-130 -219 -350 -343q-221 -125 -481 -125q-263 0 -483 126zM1326 66q163 90 257 252q94 163 94 372q0 212 -94 376
q-95 165 -257 256q-163 91 -363 91q-205 0 -368 -93t-255 -258q-92 -166 -92 -372t93 -369q92 -162 256 -254t366 -92q198 0 363 91zM682 286q-114 82 -115 255h236q0 -156 170 -156q62 0 98 31q35 30 35 86q0 58 -34 89q-35 32 -103 32h-78v165h88q119 0 119 99
q0 50 -35 77t-92 27q-65 0 -102 -27q-38 -27 -38 -85h-237q4 157 116 225q110 67 275 67q158 0 252 -70t94 -186q0 -76 -54 -127q-55 -51 -147 -53v-10q97 -6 161 -66q65 -60 65 -157q0 -141 -101 -219t-286 -78q-175 0 -287 81z" />
    <glyph glyph-name="uni2463" unicode="&#x2463;" horiz-adv-x="1925" 
d="M478 -132q-220 126 -349 343t-129 479q0 264 129 481q129 218 349 342q221 125 483 125q263 0 484 -126t348 -343q128 -218 128 -479q0 -262 -129 -480q-130 -219 -350 -343q-221 -125 -481 -125q-263 0 -483 126zM1326 66q163 90 257 252q94 163 94 372q0 212 -94 376
q-95 165 -257 256q-163 91 -363 91q-205 0 -368 -93t-255 -258q-92 -166 -92 -372t93 -369q92 -162 256 -254t366 -92q198 0 363 91zM1233 248h-246v188h-442v230l420 510h268v-558h123v-182h-123v-188zM729 618h268v353h-10q-18 -47 -53 -97q-15 -22 -105 -137z" />
    <glyph glyph-name="uni2464" unicode="&#x2464;" horiz-adv-x="1925" 
d="M1445 1512q221 -126 348 -343q128 -218 128 -479q0 -262 -129 -480q-130 -219 -350 -343q-221 -125 -481 -125q-263 0 -483 126t-349 343t-129 479q0 264 129 481q129 218 349 342q221 125 483 125q263 0 484 -126zM1326 66q163 90 257 252q94 163 94 372q0 212 -94 376
q-95 165 -257 256q-163 91 -363 91q-205 0 -368 -93t-255 -258q-92 -166 -92 -372t93 -369q92 -162 256 -254t366 -92q198 0 363 91zM1189 809q71 -39 111 -111q41 -73 41 -163q0 -107 -51 -184q-52 -78 -136 -118t-183 -40q-168 0 -274 75q-107 75 -117 219h231
q12 -120 156 -120q70 0 108 41q37 40 37 116q0 74 -41 118t-106 44q-58 0 -95 -22q-35 -21 -57 -72l-217 49l88 512h590v-184h-397l-48 -230l9 -4q50 113 194 113q86 0 157 -39z" />
    <glyph glyph-name="uni2465" unicode="&#x2465;" horiz-adv-x="1925" 
d="M478 -132q-220 126 -349 343t-129 479q0 264 129 481q129 218 349 342q221 125 483 125q263 0 484 -126t348 -343q128 -218 128 -479q0 -262 -129 -480q-130 -219 -350 -343q-221 -125 -481 -125q-263 0 -483 126zM1326 66q163 90 257 252q94 163 94 372q0 212 -94 376
q-95 165 -257 256q-163 91 -363 91q-205 0 -368 -93t-255 -258q-92 -166 -92 -372t93 -369q92 -162 256 -254t366 -92q198 0 363 91zM809 698q15 64 70 104t155 40q134 0 223 -84t89 -228q0 -154 -109 -239q-108 -84 -264 -84q-193 0 -295 119q-103 120 -103 340
q0 240 102 374q102 133 298 133q135 0 235 -62q103 -64 121 -200h-219q-12 45 -44 68q-31 22 -93 22q-98 0 -138 -75q-40 -76 -40 -228h12zM1080 425q40 40 40 101q0 65 -40 106q-40 42 -107 42q-69 0 -110 -42q-40 -41 -40 -106q0 -58 39 -99t111 -42q67 0 107 40z" />
    <glyph glyph-name="uni2466" unicode="&#x2466;" horiz-adv-x="1925" 
d="M478 -132q-220 126 -349 343t-129 479q0 264 129 481q129 218 349 342q221 125 483 125q263 0 484 -126t348 -343q128 -218 128 -479q0 -262 -129 -480q-130 -219 -350 -343q-221 -125 -481 -125q-263 0 -483 126zM1326 66q163 90 257 252q94 163 94 372q0 212 -94 376
q-95 165 -257 256q-163 91 -363 91q-205 0 -368 -93t-255 -258q-92 -166 -92 -372t93 -369q92 -162 256 -254t366 -92q198 0 363 91zM1157 950h-539v183h687v-201q-109 -109 -170 -211q-59 -99 -85 -220q-27 -125 -28 -296h-254q5 240 105 432q102 196 284 303v10z" />
    <glyph glyph-name="uni2467" unicode="&#x2467;" horiz-adv-x="1925" 
d="M478 -132q-220 126 -349 343t-129 479q0 264 129 481q129 218 349 342q221 125 483 125q263 0 484 -126t348 -343q128 -218 128 -479q0 -262 -129 -480q-130 -219 -350 -343q-221 -125 -481 -125q-263 0 -483 126zM1326 66q163 90 257 252q94 163 94 372q0 212 -94 376
q-95 165 -257 256q-163 91 -363 91q-205 0 -368 -93t-255 -258q-92 -166 -92 -372t93 -369q92 -162 256 -254t366 -92q198 0 363 91zM671 271q-104 66 -104 204q0 95 49 156t146 78v10q-70 12 -113 66q-43 53 -43 139q0 112 97 181q96 68 264 68q165 0 258 -68
q94 -69 94 -181q0 -83 -46 -138t-112 -67v-10q92 -17 145 -80q52 -62 52 -154q0 -135 -105 -203q-104 -67 -286 -67q-193 0 -296 66zM1066 812q36 32 36 83q0 56 -38 83q-39 28 -101 28q-63 0 -103 -28q-39 -27 -39 -83q0 -54 37 -84q39 -31 109 -31q62 0 99 32zM1078 415
q42 31 42 89q0 59 -43 92t-110 33q-74 0 -118 -32t-44 -91q0 -60 43 -91q44 -32 119 -32q68 0 111 32z" />
    <glyph glyph-name="uni2468" unicode="&#x2468;" horiz-adv-x="1925" 
d="M1447 1512q220 -126 349 -343q129 -218 129 -479q0 -264 -129 -481q-129 -218 -349 -342q-221 -125 -482 -125q-265 0 -485 126q-221 126 -348 343q-128 218 -128 479q0 262 129 480q130 219 350 343q221 125 482 125t482 -126zM599 1315q-162 -89 -257 -253
q-94 -163 -94 -372q0 -212 94 -376q95 -165 257 -256q163 -91 364 -91q203 0 367 93t255 258q92 166 92 372t-93 370q-92 162 -256 254q-163 91 -365 91q-201 0 -364 -90zM1116 682q-15 -64 -69 -103q-55 -40 -156 -40q-135 0 -223 84t-88 227q0 156 108 240t264 84
q193 0 295 -119q103 -120 103 -340q0 -241 -102 -375q-102 -133 -298 -133q-135 0 -235 62q-103 64 -121 200h219q12 -45 44 -68q31 -22 93 -22q99 0 139 76q39 74 39 227h-12zM845 955q-40 -40 -40 -101q0 -64 40 -105q40 -42 107 -42q70 0 110 42q40 41 40 105
q0 58 -39 99t-111 42q-67 0 -107 -40z" />
    <glyph glyph-name="uni24EA" unicode="&#x24ea;" horiz-adv-x="1921" 
d="M478 -132q-220 126 -349 343t-129 479q0 264 129 481q129 218 349 342q221 125 483 125q263 0 484 -126t348 -343q128 -218 128 -479q0 -262 -129 -480q-130 -219 -350 -343q-221 -125 -481 -125q-263 0 -483 126zM1326 66q163 90 257 252q94 163 94 372q0 212 -94 376
q-95 165 -257 256q-163 91 -363 91q-205 0 -368 -93t-255 -258q-92 -166 -92 -372t93 -369q92 -162 256 -254t366 -92q198 0 363 91zM650 335q-101 129 -101 353q0 225 102 355t312 130q209 0 311 -130q102 -131 102 -355q0 -222 -102 -353q-102 -130 -311 -130
q-211 0 -313 130zM1084 464q38 76 38 224q0 150 -39 227q-39 76 -120 76q-86 0 -123 -76q-37 -75 -37 -227t37 -225q38 -74 123 -74q83 0 121 75z" />
    <glyph glyph-name="uni24FF" unicode="&#x24ff;" 
d="M484 -132q-223 125 -354 343q-130 217 -130 479q0 264 130 481q131 219 354 342q226 125 495 125q271 0 497 -125q224 -124 353 -342q129 -217 129 -481t-130 -481q-131 -219 -354 -342q-226 -125 -495 -125q-270 0 -495 126zM1290 335q103 132 103 353q0 223 -103 355
q-102 131 -311 131t-311 -131q-103 -132 -103 -355q0 -222 102 -353q102 -130 312 -130q209 0 311 130zM856 463q-37 73 -37 225t37 227q37 76 123 76q82 0 121 -76t39 -227q0 -148 -38 -224q-37 -75 -122 -75t-123 74z" />
    <glyph glyph-name="filledbox" unicode="&#x25a0;" 
d="M1909 -221h-1860v1818h1860v-1818z" />
    <glyph glyph-name="uni25A1" unicode="&#x25a1;" 
d="M1909 -221h-1860v1818h1860v-1818zM297 1376v-1376h1364v1376h-1364z" />
    <glyph glyph-name="lozenge" unicode="&#x25ca;" horiz-adv-x="1267" 
d="M446 1434h373l414 -717l-414 -717h-373l-411 717zM641 254q39 102 78 177q41 79 100 181l62 105l-78 133q-49 83 -91 164q-36 70 -71 166h-14q-33 -93 -68 -161q-32 -61 -92 -167l-80 -135l64 -109q58 -98 102 -182q35 -66 74 -172h14z" />
    <glyph glyph-name="circle" unicode="&#x25cb;" horiz-adv-x="1921" 
d="M478 -132q-220 126 -349 343t-129 479q0 264 129 481q129 218 349 342q221 125 483 125q263 0 484 -126t348 -343q128 -218 128 -479q0 -262 -129 -480q-130 -219 -350 -343q-221 -125 -481 -125q-263 0 -483 126zM1326 66q163 90 257 252q94 163 94 372q0 212 -94 376
q-95 165 -257 256q-163 91 -363 91q-205 0 -368 -93t-255 -258q-92 -166 -92 -372t93 -369q92 -162 256 -254t366 -92q198 0 363 91z" />
    <glyph glyph-name="uni25CF" unicode="&#x25cf;" 
d="M482 -130q-224 125 -353 343q-129 217 -129 479q0 265 130 482q131 219 354 342q224 124 495 124q273 0 497 -124t353 -342q129 -217 129 -482q0 -264 -130 -481q-131 -219 -354 -342q-226 -125 -495 -125q-272 0 -497 126z" />
    <glyph glyph-name="smileface" unicode="&#x263a;" horiz-adv-x="1777" 
d="M463 -10q-193 113 -308 309q-114 195 -114 424t114 424q114 194 308 308q195 114 426 114t426 -114q194 -114 308 -308q114 -195 114 -424t-114 -424q-115 -196 -308 -309q-197 -115 -426 -115t-426 115zM1228 128q158 94 249 252q92 160 92 343q0 184 -92 342
q-91 157 -249 251q-156 93 -339 93t-339 -93q-158 -94 -249 -251q-92 -158 -92 -342q0 -183 92 -343q91 -158 249 -252q156 -93 339 -93t339 93zM1175 847q-34 34 -34 85q0 49 35 84t84 35q46 0 82 -36t36 -83q0 -49 -35 -84t-83 -35q-51 0 -85 34zM438 849q-35 35 -35 83
q0 47 35 82t84 35q46 0 83 -35q36 -35 36 -82q0 -48 -35 -83q-34 -34 -84 -34t-84 34zM1417 711q0 -146 -71 -266q-72 -121 -193 -193t-262 -72q-143 0 -265 72q-123 73 -194 193q-72 121 -72 266h168q0 -100 50 -186q50 -85 132 -135q83 -50 181 -50q96 0 179 50t131 135
t48 186h168z" />
    <glyph glyph-name="invsmileface" unicode="&#x263b;" horiz-adv-x="1777" 
d="M463 -10q-193 113 -308 309q-114 195 -114 424t114 424q114 194 308 308q195 114 426 114t426 -114q194 -114 308 -308q114 -195 114 -424t-114 -424q-115 -196 -308 -309q-197 -115 -426 -115t-426 115zM1384 868q35 35 35 84q0 47 -36 83t-83 36q-48 0 -83 -35t-35 -84
q0 -52 33 -85t85 -33q50 0 84 34zM565 869q35 35 35 83t-36 82q-37 35 -83 35q-49 0 -84 -35t-35 -82q0 -48 35 -83q33 -33 84 -33t84 33zM1164 234q127 75 200 201q74 127 74 276h-168q0 -107 -51 -196t-139 -142q-89 -54 -189 -54q-102 0 -193 54q-87 52 -139 142
q-51 89 -51 196h-168q0 -150 75 -276q76 -127 200 -201t276 -74q149 0 273 74z" />
    <glyph glyph-name="sun" unicode="&#x263c;" horiz-adv-x="1777" 
d="M850 586l-188 -514q-18 -53 -54 -78t-73 -25q-55 0 -98 38q-42 37 -42 93q0 51 41 101l350 420l-419 -349q-50 -41 -101 -41q-56 0 -93 42q-38 43 -38 96q0 36 25 72q24 34 78 53l507 186l-534 -88q-21 -4 -35 -4q-62 0 -100 39q-37 38 -37 94q0 53 36 92t101 39
q19 0 35 -2l534 -86l-507 184q-55 19 -78 52q-25 36 -25 75q0 52 38 95q37 42 93 42q51 0 101 -41l421 -350l-350 422q-41 50 -41 100q0 54 42 93t96 39q36 0 72 -25q33 -23 52 -78l189 -516l-88 543q-2 16 -2 35q0 63 39 99t92 36q52 0 92 -35q39 -34 39 -98q0 -16 -4 -37
l-90 -545l188 518q19 55 52 78q36 25 75 25q52 0 96 -38q43 -37 43 -94q0 -50 -41 -100l-350 -420l420 348q50 41 100 41q57 0 94 -42q37 -41 37 -95q0 -39 -24 -73q-23 -33 -78 -52l-508 -186l535 88q21 4 34 4q63 0 101 -39q37 -38 37 -94q0 -53 -36 -92t-102 -39
q-18 0 -34 2l-535 86l508 -184q54 -19 78 -53q24 -35 24 -74q0 -55 -37 -96q-37 -42 -94 -42q-50 0 -100 41l-422 351l350 -422q41 -50 41 -103t-41 -91t-94 -38q-39 0 -75 25q-33 23 -52 78l-188 516l88 -543q2 -16 2 -35q0 -63 -39 -99t-92 -36q-52 0 -92 35
q-39 34 -39 98q0 16 4 37z" />
    <glyph glyph-name="uni2661" unicode="&#x2661;" horiz-adv-x="1796" 
d="M1531 1412q100 -59 160 -163q58 -101 58 -223q0 -150 -69 -271q-70 -124 -166 -212q-99 -92 -254 -211q-149 -113 -229 -188q-81 -76 -120 -162h-16q-39 86 -121 162q-91 84 -231 188q-160 122 -260 214q-97 89 -166 211q-70 123 -70 269q0 123 59 223q61 104 163 163
q105 61 231 61q91 0 181 -45q87 -44 145 -119q59 -77 71 -166h16q10 89 68 166q55 74 143 119t183 45q120 0 224 -61zM1014 345q71 61 155 122q131 99 215 175q80 72 137 170q56 96 56 214q0 128 -72 208q-72 79 -188 79q-121 0 -197 -94q-77 -95 -78 -250h-270
q-7 155 -86 250q-78 94 -197 94q-120 0 -195 -79q-75 -80 -75 -208q0 -119 56 -213q58 -98 139 -170q82 -73 219 -174q124 -95 166 -129q59 -48 104 -102q46 51 111 107z" />
    <glyph glyph-name="heart" unicode="&#x2665;" horiz-adv-x="1751" 
d="M872 -18q-39 86 -118 162q-80 77 -224 188q-151 115 -251 210q-97 93 -164 213q-68 122 -68 271q0 122 58 223q60 104 157 163q101 61 215 61q91 0 181 -45q89 -45 146 -119q59 -77 71 -166h16q11 90 67 166q55 74 144 119q88 45 182 45q113 0 211 -61q95 -59 153 -163
q56 -100 56 -223q0 -148 -67 -271q-67 -124 -160 -212q-97 -92 -250 -213q-136 -106 -218 -185q-81 -78 -120 -163h-17z" />
    <glyph glyph-name="uni2776" unicode="&#x2776;" 
d="M484 -132q-223 125 -354 343q-130 217 -130 479q0 264 130 481q131 219 354 342q226 125 495 125q271 0 497 -125q224 -124 353 -342q129 -217 129 -481t-130 -481q-131 -219 -354 -342q-226 -125 -495 -125q-270 0 -495 126zM905 238h242v907h-191q-16 -78 -85 -118
q-68 -40 -187 -40v-211h14q82 0 125 24q44 24 74 77h8v-639z" />
    <glyph glyph-name="uni2777" unicode="&#x2777;" 
d="M484 -132q-223 125 -354 343q-130 217 -130 479q0 264 130 481q131 219 354 342q226 125 495 125q271 0 497 -125q224 -124 353 -342q129 -217 129 -481t-130 -481q-131 -219 -354 -342q-226 -125 -495 -125q-270 0 -495 126zM612 248h736v201h-218q-128 0 -210 -11
l-5 11l64 38q144 90 220 145q74 54 117 119q44 67 44 154q0 139 -99 215q-98 76 -251 76q-173 0 -277 -82q-105 -82 -106 -237h233q1 65 39 101q37 36 98 36q52 0 86 -29q33 -29 33 -84q0 -58 -40 -108q-45 -56 -108 -103q-58 -43 -214 -149l-142 -95v-198z" />
    <glyph glyph-name="uni2778" unicode="&#x2778;" 
d="M484 -132q-223 125 -354 343q-130 217 -130 479q0 264 130 481q131 219 354 342q226 125 495 125q271 0 497 -125q224 -124 353 -342q129 -217 129 -481t-130 -481q-131 -219 -354 -342q-226 -125 -495 -125q-270 0 -495 126zM1272 283q100 78 100 219q0 98 -64 158
q-66 61 -161 67v8q91 1 146 53t55 130q0 115 -95 184t-249 69q-165 0 -277 -67q-114 -68 -115 -225h236q0 56 38 83t103 27q57 0 92 -27t35 -75q0 -99 -121 -99h-88v-165h80q67 0 102 -32q33 -30 33 -89q0 -55 -35 -87t-98 -32q-170 0 -170 158h-233q2 -176 113 -256
q112 -80 288 -80q185 0 285 78z" />
    <glyph glyph-name="uni2779" unicode="&#x2779;" 
d="M484 -132q-223 125 -354 343q-130 217 -130 479q0 264 130 481q131 219 354 342q226 125 495 125q271 0 497 -125q224 -124 353 -342q129 -217 129 -481t-130 -481q-131 -219 -354 -342q-226 -125 -495 -125q-270 0 -495 126zM987 436v-188h246v188h123v182h-123v556
h-268l-420 -508v-230h442zM829 737q76 93 106 135q34 48 52 99h10v-353h-266z" />
    <glyph glyph-name="uni277A" unicode="&#x277a;" 
d="M484 -132q-223 125 -354 343q-130 217 -130 479q0 264 130 481q131 219 354 342q226 125 495 125q271 0 497 -125q224 -124 353 -342q129 -217 129 -481t-130 -481q-131 -219 -354 -342q-226 -125 -495 -125q-270 0 -495 126zM1192 232q84 41 135 118q51 78 51 185
q0 90 -41 163q-41 72 -111 111t-157 39q-145 0 -195 -113l-8 4l47 230h400v184h-590l-90 -512l217 -49q22 51 57 71q37 21 94 21q67 0 107 -43q41 -44 41 -115q0 -77 -38 -118t-107 -41q-144 0 -156 118h-232q12 -143 120 -218q107 -74 274 -74q101 0 182 39z" />
    <glyph glyph-name="uni277B" unicode="&#x277b;" 
d="M484 -132q-223 125 -354 343q-130 217 -130 479q0 264 130 481q131 219 354 342q226 125 495 125q271 0 497 -125q224 -124 353 -342q129 -217 129 -481t-130 -481q-131 -219 -354 -342q-226 -125 -495 -125q-270 0 -495 126zM1175 243q85 36 137 109t52 178
q0 144 -89 228t-222 84q-104 0 -157 -40q-54 -41 -71 -104h-10q-1 152 39 228q40 75 137 75q62 0 93 -22q32 -23 44 -68h222q-21 140 -122 201q-103 62 -237 62q-196 0 -298 -134q-101 -132 -101 -374q0 -222 103 -340q104 -119 294 -119q101 0 186 36zM880 427
q-40 40 -40 99q0 65 40 106q40 42 109 42q70 0 109 -42t39 -106q0 -58 -39 -99q-39 -40 -109 -40q-69 0 -109 40z" />
    <glyph glyph-name="uni277C" unicode="&#x277c;" 
d="M484 -132q-223 125 -354 343q-130 217 -130 479q0 264 130 481q131 219 354 342q226 125 495 125q271 0 497 -125q224 -124 353 -342q129 -217 129 -481t-130 -481q-131 -219 -354 -342q-226 -125 -495 -125q-270 0 -495 126zM1038 205q5 176 30 296q26 121 85 220
t168 211v201h-684v-183h534l3 -10q-182 -107 -284 -303q-101 -194 -106 -432h254z" />
    <glyph glyph-name="uni277D" unicode="&#x277d;" 
d="M484 -132q-223 125 -354 343q-130 217 -130 479q0 264 130 481q131 219 354 342q226 125 495 125q271 0 497 -125q224 -124 353 -342q129 -217 129 -481t-130 -481q-131 -219 -354 -342q-226 -125 -495 -125q-270 0 -495 126zM1281 272q103 67 103 201q0 94 -52 156
q-53 64 -144 80v10q68 12 114 67t46 138q0 112 -96 182t-259 70q-162 0 -262 -70q-98 -68 -98 -182q0 -82 44 -138q43 -55 111 -67v-10q-96 -16 -145 -79q-49 -62 -49 -157q0 -137 104 -202q105 -66 295 -66q185 0 288 67zM887 812q-37 31 -37 83q0 55 39 84q40 29 100 29
q64 0 102 -29q37 -29 39 -84q0 -53 -36 -83q-38 -32 -101 -32q-68 0 -106 32zM877 415q-43 31 -43 91t43 91q44 32 116 32q67 0 111 -33q43 -33 43 -92q0 -58 -42 -89q-43 -32 -112 -32q-72 0 -116 32z" />
    <glyph glyph-name="uni277E" unicode="&#x277e;" 
d="M1474 1512q223 -125 354 -343q130 -217 130 -479q0 -264 -130 -481q-131 -219 -354 -342q-226 -125 -495 -125q-271 0 -497 125q-224 124 -353 342q-129 217 -129 481t130 481q131 219 354 342q226 125 495 125q270 0 495 -126zM781 1138q-83 -35 -137 -109
q-52 -71 -52 -175q0 -144 89 -230q88 -85 224 -85q101 0 156 40q54 39 69 103h13q0 -150 -41 -226q-40 -75 -137 -75q-64 0 -93 22q-31 23 -43 66h-221q18 -136 121 -200q100 -62 236 -62q197 0 299 134q102 133 102 374q0 222 -103 340q-104 119 -296 119q-101 0 -186 -36z
M1077 953q39 -41 39 -99q0 -60 -41 -103q-41 -42 -108 -42t-108 42q-40 41 -40 103q0 61 40 101t108 40q71 -1 110 -42z" />
    <glyph glyph-name="uni2E18" unicode="&#x2e18;" horiz-adv-x="1130" 
d="M732 1198q61 -61 61 -147q0 -88 -61 -146q-60 -57 -150 -57t-150 57q-59 56 -59 146q0 88 59 147t150 59t150 -59zM469 346q-14 -27 -45 -70q-29 -41 -29 -98q0 -72 43 -109q44 -38 125 -38q105 0 149 50q45 51 46 171h336q0 -258 -140 -378t-403 -120q-227 0 -372 101
q-144 101 -144 284q0 108 52 193q54 87 159 160q72 50 114 86q34 30 47 65q13 37 15 105h319q0 -133 -14 -207l-76 -412h-147l-23 213z" />
    <glyph glyph-name="uniE000" unicode="&#xe000;" horiz-adv-x="1691" 
d="M399 0q-29 105 -65 168q-34 61 -90 94q-56 34 -146 35v145q138 -5 199 -45t82 -114h8v1286h1280v-139h-1145v-1147h6q22 72 86 115q64 42 201 44v-145q-89 -1 -148 -34q-55 -30 -90 -93q-33 -59 -67 -170h-111z" />
    <glyph glyph-name="uniF8FF" unicode="&#xf8ff;" horiz-adv-x="1495" 
d="M365 -49q78 -4 141 14q61 18 96 62q38 45 45 102q-52 -49 -117 -75q-68 -27 -141 -27q-91 0 -173 47q-80 46 -129 127q-48 79 -48 172q0 113 61 202q63 92 162 138q148 70 227 196q36 64 43 129l-221 2v138h131q78 0 121 42t43 119v138l668 112v-411l149 2v-148l-278 2
v-131q0 -76 11 -109q12 -36 52 -57q35 -18 35 -61q0 -37 -19 -55q-21 -19 -48 -19q-19 0 -37 8l-86 45q11 -68 34 -116q24 -49 68 -93q-39 -10 -74 -10q-33 0 -77 10q-76 17 -148 76q11 -33 26 -62q13 -26 44 -54q63 -52 151 -52q22 0 40 3t22 3v-233q-120 2 -271 2
q1 -44 25 -74q29 -38 90 -59q60 -21 133 -21q36 0 82 7q-209 -113 -446 -113q-202 0 -387 82zM986 837q20 20 20 46q0 28 -20 48q-19 19 -48 19q-27 0 -45 -19q-19 -21 -19 -48q0 -25 19 -46q18 -20 45 -20q28 0 48 20z" />
    <glyph glyph-name="u1F345" unicode="&#x1f345;" horiz-adv-x="1781" 
d="M464 -16q-194 113 -309 310q-114 195 -114 427q0 231 114 426q113 193 309 308q195 114 427 114t427 -114q196 -115 309 -308q114 -195 114 -426q0 -230 -115 -427t-309 -310q-197 -115 -426 -115q-230 0 -427 115zM895 639h14l90 -301q29 -96 111 -96q65 0 124 53
q58 52 58 115q0 60 -59 100l-254 188l4 13l293 -37q14 -2 27 -2q53 0 80 35q28 36 28 90q0 73 -41 138q-40 64 -98 64q-36 0 -74 -30l-240 -191l-14 10l117 271q14 27 14 57q0 56 -51 87q-52 32 -121 32t-121 -32q-51 -31 -51 -87q0 -27 12 -57l115 -271l-12 -10l-238 191
q-34 28 -71 28q-60 0 -102 -64q-42 -65 -42 -138q0 -53 27 -88t82 -35q12 0 26 2l293 37l4 -13l-254 -188q-59 -38 -59 -100q0 -63 58 -115q59 -53 122 -53q82 0 111 96z" />
    <glyph glyph-name="K.ss01" horiz-adv-x="1495" 
d="M106 0v1434h363l-10 -635l14 -4q44 76 130 177q64 75 208 230l227 232h441l-566 -572l584 -862h-428l-410 616l-190 -190v-426h-363z" />
    <glyph glyph-name="uni0136.ss01" horiz-adv-x="1495" 
d="M106 0v1434h363l-10 -635l14 -4q44 76 130 177q64 75 208 230l227 232h441l-566 -572l584 -862h-428l-410 616l-190 -190v-426h-363zM745 -565h-217l95 391h292z" />
    <glyph glyph-name="R.ss01" horiz-adv-x="1435" 
d="M979 700l432 -700h-405l-299 494h-236v-494h-362v1434h772q210 0 337 -95q125 -94 125 -252q0 -164 -97 -265t-261 -107zM756 737q105 0 171 61q64 60 64 158q0 91 -64 146t-171 55h-285v-420h285z" />
    <glyph glyph-name="Racute.ss01" horiz-adv-x="1435" 
d="M979 700l432 -700h-405l-299 494h-236v-494h-362v1434h772q210 0 337 -95q125 -94 125 -252q0 -164 -97 -265t-261 -107zM756 737q105 0 171 61q64 60 64 158q0 91 -64 146t-171 55h-285v-420h285zM1198 1806l-663 -245l-70 182l649 268z" />
    <glyph glyph-name="Rcaron.ss01" horiz-adv-x="1435" 
d="M979 700l432 -700h-405l-299 494h-236v-494h-362v1434h772q210 0 337 -95q125 -94 125 -252q0 -164 -97 -265t-261 -107zM756 737q105 0 171 61q64 60 64 158q0 91 -64 146t-171 55h-285v-420h285zM326 1858h262l55 -56q56 -61 70 -80h12q25 34 72 80l51 56h260
l-234 -295h-315z" />
    <glyph glyph-name="uni0156.ss01" horiz-adv-x="1435" 
d="M979 700l432 -700h-405l-299 494h-236v-494h-362v1434h772q210 0 337 -95q125 -94 125 -252q0 -164 -97 -265t-261 -107zM756 737q105 0 171 61q64 60 64 158q0 91 -64 146t-171 55h-285v-420h285zM707 -565h-218l95 391h293z" />
    <glyph glyph-name="uni1E9E.ss01" horiz-adv-x="1673" 
d="M88 0v1434h1454v-455l-502 -139q-49 -12 -73 -34q-23 -21 -23 -56q0 -43 36 -70q35 -26 114 -43l219 -45q167 -34 247 -107q78 -71 78 -198q0 -170 -138 -245t-392 -75q-278 0 -415 87q-136 87 -136 278h358q0 -56 50 -86q51 -31 145 -31q83 0 125 19q43 19 43 55
q0 58 -96 76l-226 43q-358 69 -358 331q0 143 87 218q86 74 226 112l234 66v16h-696v-1151h-361z" />
    <glyph glyph-name="R.ss02" horiz-adv-x="1449" 
d="M1332 125q9 -73 40 -125h-354q-32 38 -46 124q-14 89 -14 142q0 102 -20 146q-21 46 -72 64t-155 18h-240v-494h-362v1434h768q134 0 239 -45t162 -126t57 -186q0 -159 -104 -257q-105 -99 -277 -105v-15q342 5 357 -247q12 -251 21 -328zM756 737q101 0 165 58
q62 56 62 153q0 96 -62 152q-63 57 -165 57h-285v-420h285z" />
    <glyph glyph-name="Racute.ss02" horiz-adv-x="1449" 
d="M1332 125q9 -73 40 -125h-354q-32 38 -46 124q-14 89 -14 142q0 102 -20 146q-21 46 -72 64t-155 18h-240v-494h-362v1434h768q134 0 239 -45t162 -126t57 -186q0 -159 -104 -257q-105 -99 -277 -105v-15q342 5 357 -247q12 -251 21 -328zM756 737q101 0 165 58
q62 56 62 153q0 96 -62 152q-63 57 -165 57h-285v-420h285zM1182 1806l-664 -245l-69 182l649 268z" />
    <glyph glyph-name="Rcaron.ss02" horiz-adv-x="1449" 
d="M1332 125q9 -73 40 -125h-354q-32 38 -46 124q-14 89 -14 142q0 102 -20 146q-21 46 -72 64t-155 18h-240v-494h-362v1434h768q134 0 239 -45t162 -126t57 -186q0 -159 -104 -257q-105 -99 -277 -105v-15q342 5 357 -247q12 -251 21 -328zM756 737q101 0 165 58
q62 56 62 153q0 96 -62 152q-63 57 -165 57h-285v-420h285zM309 1858h262l56 -56q52 -56 69 -80h13q27 37 71 80l51 56h261l-234 -295h-315z" />
    <glyph glyph-name="uni0156.ss02" horiz-adv-x="1449" 
d="M1332 125q9 -73 40 -125h-354q-32 38 -46 124q-14 89 -14 142q0 102 -20 146q-21 46 -72 64t-155 18h-240v-494h-362v1434h768q134 0 239 -45t162 -126t57 -186q0 -159 -104 -257q-105 -99 -277 -105v-15q342 5 357 -247q12 -251 21 -328zM756 737q101 0 165 58
q62 56 62 153q0 96 -62 152q-63 57 -165 57h-285v-420h285zM727 -565h-217l94 391h293z" />
    <glyph glyph-name="i.loclTRK" horiz-adv-x="520" 
d="M90 0v1057h336v-1057h-336zM122 1242q-56 56 -56 132q0 78 56 134q57 57 134 57q78 0 136 -56q57 -55 57 -135t-57 -134t-136 -54q-78 0 -134 56z" />
    <glyph glyph-name="a.ss01" horiz-adv-x="1224" 
d="M110 447q73 73 226 100l471 84v18q0 97 -46 146t-155 49q-211 0 -227 -211h-330q12 201 154 329t409 128q254 0 388 -120q135 -121 135 -329v-641h-318l-10 322h-10q-15 -157 -121 -256t-277 -99q-162 0 -262 76t-100 209q0 122 73 195zM414 203q38 -29 104 -29
q117 0 197 77t92 198l-266 -48q-93 -17 -128 -43q-36 -27 -36 -77t37 -78z" />
    <glyph glyph-name="aacute.ss01" horiz-adv-x="1224" 
d="M110 447q73 73 226 100l471 84v18q0 97 -46 146t-155 49q-211 0 -227 -211h-330q12 201 154 329t409 128q254 0 388 -120q135 -121 135 -329v-641h-318l-10 322h-10q-15 -157 -121 -256t-277 -99q-162 0 -262 76t-100 209q0 122 73 195zM414 203q38 -29 104 -29
q117 0 197 77t92 198l-266 -48q-93 -17 -128 -43q-36 -27 -36 -77t37 -78zM1110 1430l-664 -246l-69 182l649 268z" />
    <glyph glyph-name="abreve.ss01" horiz-adv-x="1224" 
d="M110 447q73 73 226 100l471 84v18q0 97 -46 146t-155 49q-211 0 -227 -211h-330q12 201 154 329t409 128q254 0 388 -120q135 -121 135 -329v-641h-318l-10 322h-10q-15 -157 -121 -256t-277 -99q-162 0 -262 76t-100 209q0 122 73 195zM414 203q38 -29 104 -29
q117 0 197 77t92 198l-266 -48q-93 -17 -128 -43q-36 -27 -36 -77t37 -78zM387 1267q-98 80 -125 224h240q8 -56 42 -83q36 -28 87 -28q109 0 131 111h239q-29 -146 -127 -225q-100 -80 -243 -80q-145 0 -244 81z" />
    <glyph glyph-name="acircumflex.ss01" horiz-adv-x="1224" 
d="M110 447q73 73 226 100l471 84v18q0 97 -46 146t-155 49q-211 0 -227 -211h-330q12 201 154 329t409 128q254 0 388 -120q135 -121 135 -329v-641h-318l-10 322h-10q-15 -157 -121 -256t-277 -99q-162 0 -262 76t-100 209q0 122 73 195zM414 203q38 -29 104 -29
q117 0 197 77t92 198l-266 -48q-93 -17 -128 -43q-36 -27 -36 -77t37 -78zM238 1186l233 295h315l234 -295h-260l-51 55q-49 49 -72 82h-12q-23 -33 -70 -80l-55 -57h-262z" />
    <glyph glyph-name="adieresis.ss01" horiz-adv-x="1224" 
d="M110 447q73 73 226 100l471 84v18q0 97 -46 146t-155 49q-211 0 -227 -211h-330q12 201 154 329t409 128q254 0 388 -120q135 -121 135 -329v-641h-318l-10 322h-10q-15 -157 -121 -256t-277 -99q-162 0 -262 76t-100 209q0 122 73 195zM414 203q38 -29 104 -29
q117 0 197 77t92 198l-266 -48q-93 -17 -128 -43q-36 -27 -36 -77t37 -78zM731 1235q-47 47 -47 113q0 64 47 113q47 48 115 48q67 0 113 -46q47 -47 47 -115q0 -67 -47 -114q-46 -46 -113 -46q-68 0 -115 47zM301 1233q-47 47 -47 113q0 64 47 113q47 48 115 48t114 -46
q48 -48 48 -115q0 -66 -48 -114q-46 -46 -114 -46t-115 47z" />
    <glyph glyph-name="agrave.ss01" horiz-adv-x="1224" 
d="M110 447q73 73 226 100l471 84v18q0 97 -46 146t-155 49q-211 0 -227 -211h-330q12 201 154 329t409 128q254 0 388 -120q135 -121 135 -329v-641h-318l-10 322h-10q-15 -157 -121 -256t-277 -99q-162 0 -262 76t-100 209q0 122 73 195zM414 203q38 -29 104 -29
q117 0 197 77t92 198l-266 -48q-93 -17 -128 -43q-36 -27 -36 -77t37 -78zM885 1366l-72 -182l-661 246l84 204z" />
    <glyph glyph-name="amacron.ss01" horiz-adv-x="1224" 
d="M110 447q73 73 226 100l471 84v18q0 97 -46 146t-155 49q-211 0 -227 -211h-330q12 201 154 329t409 128q254 0 388 -120q135 -121 135 -329v-641h-318l-10 322h-10q-15 -157 -121 -256t-277 -99q-162 0 -262 76t-100 209q0 122 73 195zM414 203q38 -29 104 -29
q117 0 197 77t92 198l-266 -48q-93 -17 -128 -43q-36 -27 -36 -77t37 -78zM997 1186h-731v217h731v-217z" />
    <glyph glyph-name="aogonek.ss01" horiz-adv-x="1224" 
d="M1137 -244v-172q-79 -10 -142 -10q-299 0 -299 180q0 88 88 154q89 66 250 84v8h-217l-10 322h-10q-15 -157 -121 -256t-277 -99q-162 0 -262 76t-100 209q0 122 73 195t226 100l471 84v18q0 97 -46 146t-155 49q-211 0 -227 -211h-330q12 201 154 329t409 128
q254 0 388 -120q135 -121 135 -329v-641q-195 -88 -195 -178q0 -67 107 -72q45 0 90 6zM715 251q80 77 92 198l-266 -48q-93 -17 -128 -43q-36 -27 -36 -77t37 -78q38 -29 104 -29q117 0 197 77z" />
    <glyph glyph-name="aring.ss01" horiz-adv-x="1224" 
d="M110 447q73 73 226 100l471 84v18q0 97 -46 146t-155 49q-211 0 -227 -211h-330q12 201 154 329t409 128q254 0 388 -120q135 -121 135 -329v-641h-318l-10 322h-10q-15 -157 -121 -256t-277 -99q-162 0 -262 76t-100 209q0 122 73 195zM414 203q38 -29 104 -29
q117 0 197 77t92 198l-266 -48q-93 -17 -128 -43q-36 -27 -36 -77t37 -78zM398 1264q-89 78 -89 204q0 127 89 205q88 78 233 78q143 0 232 -78t89 -205q0 -126 -89 -204t-232 -78q-145 0 -233 78zM719 1397q33 27 33 71q0 45 -33 72t-88 27q-53 0 -86 -27t-33 -72
q0 -44 33 -71t86 -27q55 0 88 27z" />
    <glyph glyph-name="atilde.ss01" horiz-adv-x="1224" 
d="M110 447q73 73 226 100l471 84v18q0 97 -46 146t-155 49q-211 0 -227 -211h-330q12 201 154 329t409 128q254 0 388 -120q135 -121 135 -329v-641h-318l-10 322h-10q-15 -157 -121 -256t-277 -99q-162 0 -262 76t-100 209q0 122 73 195zM414 203q38 -29 104 -29
q117 0 197 77t92 198l-266 -48q-93 -17 -128 -43q-36 -27 -36 -77t37 -78zM238 1186q0 141 56 212q57 72 163 72q84 0 180 -38q81 -31 119 -31q28 0 43 16q14 16 16 56h203q0 -141 -56 -210q-57 -71 -163 -71q-79 0 -183 37q-81 31 -118 31q-58 0 -60 -74h-200z" />
    <glyph glyph-name="ae.ss01" horiz-adv-x="1982" 
d="M137 43q-100 76 -100 209q0 122 73 195t226 100l471 84v18q0 97 -46 146t-155 49q-102 0 -156 -56q-56 -57 -63 -155h-330q12 201 152 329t403 128q130 0 226 -36q95 -36 161 -118h11q66 80 161 117t211 37q166 0 292 -73q124 -72 189 -197q64 -124 64 -275v-86h-790
q2 -118 67 -182t176 -64q110 0 172 43q64 44 82 111h283q-17 -135 -97 -224t-194 -133q-111 -43 -225 -43q-173 0 -301 63q-127 63 -199 181q-31 49 -55 127h-12q-8 -108 -68 -193q-61 -85 -156 -131q-97 -47 -211 -47q-162 0 -262 76zM1161 639q139 0 251 -31
q107 -30 185 -106l13 6q7 182 -62 259t-178 77q-96 0 -160 -53q-63 -53 -71 -152h22zM665 213q64 39 100 102t42 134l-283 -50q-77 -15 -112 -42t-35 -72q0 -53 36 -82q37 -29 105 -29q82 0 147 39z" />
    <glyph glyph-name="aeacute.ss01" horiz-adv-x="1982" 
d="M137 43q-100 76 -100 209q0 122 73 195t226 100l471 84v18q0 97 -46 146t-155 49q-102 0 -156 -56q-56 -57 -63 -155h-330q12 201 152 329t403 128q130 0 226 -36q95 -36 161 -118h11q66 80 161 117t211 37q166 0 292 -73q124 -72 189 -197q64 -124 64 -275v-86h-790
q2 -118 67 -182t176 -64q110 0 172 43q64 44 82 111h283q-17 -135 -97 -224t-194 -133q-111 -43 -225 -43q-173 0 -301 63q-127 63 -199 181q-31 49 -55 127h-12q-8 -108 -68 -193q-61 -85 -156 -131q-97 -47 -211 -47q-162 0 -262 76zM1161 639q139 0 251 -31
q107 -30 185 -106l13 6q7 182 -62 259t-178 77q-96 0 -160 -53q-63 -53 -71 -152h22zM665 213q64 39 100 102t42 134l-283 -50q-77 -15 -112 -42t-35 -72q0 -53 36 -82q37 -29 105 -29q82 0 147 39zM1485 1429l-664 -245l-69 182l649 268z" />
    <glyph glyph-name="uni01E3.ss01" horiz-adv-x="1982" 
d="M137 43q-100 76 -100 209q0 122 73 195t226 100l471 84v18q0 97 -46 146t-155 49q-102 0 -156 -56q-56 -57 -63 -155h-330q12 201 152 329t403 128q130 0 226 -36q95 -36 161 -118h11q66 80 161 117t211 37q166 0 292 -73q124 -72 189 -197q64 -124 64 -275v-86h-790
q2 -118 67 -182t176 -64q110 0 172 43q64 44 82 111h283q-17 -135 -97 -224t-194 -133q-111 -43 -225 -43q-173 0 -301 63q-127 63 -199 181q-31 49 -55 127h-12q-8 -108 -68 -193q-61 -85 -156 -131q-97 -47 -211 -47q-162 0 -262 76zM1161 639q139 0 251 -31
q107 -30 185 -106l13 6q7 182 -62 259t-178 77q-96 0 -160 -53q-63 -53 -71 -152h22zM665 213q64 39 100 102t42 134l-283 -50q-77 -15 -112 -42t-35 -72q0 -53 36 -82q37 -29 105 -29q82 0 147 39zM1372 1186h-731v217h731v-217z" />
    <glyph glyph-name="e.ss01" horiz-adv-x="1208" 
d="M1153 459h-790q1 -117 67 -181q67 -65 178 -65q108 0 170 43q64 44 82 111h285q-17 -135 -98 -224q-82 -89 -195 -133q-111 -43 -225 -43q-269 0 -425 148q-155 147 -155 417q0 166 69 292q70 128 194 196q128 70 294 70q168 0 294 -73q122 -71 189 -197q66 -124 66 -275
v-86zM836 508q7 178 -61 257q-69 79 -179 79q-94 0 -159 -53q-64 -52 -72 -152h32q150 0 249 -32q98 -31 177 -105z" />
    <glyph glyph-name="eacute.ss01" horiz-adv-x="1208" 
d="M1153 459h-790q1 -117 67 -181q67 -65 178 -65q108 0 170 43q64 44 82 111h285q-17 -135 -98 -224q-82 -89 -195 -133q-111 -43 -225 -43q-269 0 -425 148q-155 147 -155 417q0 166 69 292q70 128 194 196q128 70 294 70q168 0 294 -73q122 -71 189 -197q66 -124 66 -275
v-86zM836 508q7 178 -61 257q-69 79 -179 79q-94 0 -159 -53q-64 -52 -72 -152h32q150 0 249 -32q98 -31 177 -105zM1087 1430l-663 -246l-70 182l650 268z" />
    <glyph glyph-name="ebreve.ss01" horiz-adv-x="1208" 
d="M1153 459h-790q1 -117 67 -181q67 -65 178 -65q108 0 170 43q64 44 82 111h285q-17 -135 -98 -224q-82 -89 -195 -133q-111 -43 -225 -43q-269 0 -425 148q-155 147 -155 417q0 166 69 292q70 128 194 196q128 70 294 70q168 0 294 -73q122 -71 189 -197q66 -124 66 -275
v-86zM836 508q7 178 -61 257q-69 79 -179 79q-94 0 -159 -53q-64 -52 -72 -152h32q150 0 249 -32q98 -31 177 -105zM362 1267q-97 79 -124 224h239q8 -56 42 -83q36 -28 87 -28q108 0 131 111h240q-29 -146 -127 -225q-100 -80 -244 -80q-145 0 -244 81z" />
    <glyph glyph-name="ecaron.ss01" horiz-adv-x="1208" 
d="M1153 459h-790q1 -117 67 -181q67 -65 178 -65q108 0 170 43q64 44 82 111h285q-17 -135 -98 -224q-82 -89 -195 -133q-111 -43 -225 -43q-269 0 -425 148q-155 147 -155 417q0 166 69 292q70 128 194 196q128 70 294 70q168 0 294 -73q122 -71 189 -197q66 -124 66 -275
v-86zM836 508q7 178 -61 257q-69 79 -179 79q-94 0 -159 -53q-64 -52 -72 -152h32q150 0 249 -32q98 -31 177 -105zM215 1481h262l55 -56q60 -64 70 -79h12q22 31 72 79l51 56h260l-233 -295h-315z" />
    <glyph glyph-name="ecircumflex.ss01" horiz-adv-x="1208" 
d="M1153 459h-790q1 -117 67 -181q67 -65 178 -65q108 0 170 43q64 44 82 111h285q-17 -135 -98 -224q-82 -89 -195 -133q-111 -43 -225 -43q-269 0 -425 148q-155 147 -155 417q0 166 69 292q70 128 194 196q128 70 294 70q168 0 294 -73q122 -71 189 -197q66 -124 66 -275
v-86zM836 508q7 178 -61 257q-69 79 -179 79q-94 0 -159 -53q-64 -52 -72 -152h32q150 0 249 -32q98 -31 177 -105zM215 1186l234 295h315l233 -295h-260l-51 55q-49 49 -72 82h-12q-23 -33 -70 -80l-55 -57h-262z" />
    <glyph glyph-name="edieresis.ss01" horiz-adv-x="1208" 
d="M1153 459h-790q1 -117 67 -181q67 -65 178 -65q108 0 170 43q64 44 82 111h285q-17 -135 -98 -224q-82 -89 -195 -133q-111 -43 -225 -43q-269 0 -425 148q-155 147 -155 417q0 166 69 292q70 128 194 196q128 70 294 70q168 0 294 -73q122 -71 189 -197q66 -124 66 -275
v-86zM836 508q7 178 -61 257q-69 79 -179 79q-94 0 -159 -53q-64 -52 -72 -152h32q150 0 249 -32q98 -31 177 -105zM709 1235q-47 47 -47 113q0 64 47 113q47 48 114 48q68 0 114 -46t46 -115q0 -68 -46 -114t-114 -46q-67 0 -114 47zM279 1233q-48 48 -48 113q0 63 48 113
q47 48 114 48q69 0 115 -46q47 -47 47 -115q0 -67 -47 -114q-46 -46 -115 -46q-67 0 -114 47z" />
    <glyph glyph-name="edotaccent.ss01" horiz-adv-x="1208" 
d="M1153 459h-790q1 -117 67 -181q67 -65 178 -65q108 0 170 43q64 44 82 111h285q-17 -135 -98 -224q-82 -89 -195 -133q-111 -43 -225 -43q-269 0 -425 148q-155 147 -155 417q0 166 69 292q70 128 194 196q128 70 294 70q168 0 294 -73q122 -71 189 -197q66 -124 66 -275
v-86zM836 508q7 178 -61 257q-69 79 -179 79q-94 0 -159 -53q-64 -52 -72 -152h32q150 0 249 -32q98 -31 177 -105zM472 1242q-56 56 -56 132q0 78 56 134q57 57 134 57q78 0 136 -56q57 -55 57 -135t-57 -134t-136 -54q-78 0 -134 56z" />
    <glyph glyph-name="egrave.ss01" horiz-adv-x="1208" 
d="M1153 459h-790q1 -117 67 -181q67 -65 178 -65q108 0 170 43q64 44 82 111h285q-17 -135 -98 -224q-82 -89 -195 -133q-111 -43 -225 -43q-269 0 -425 148q-155 147 -155 417q0 166 69 292q70 128 194 196q128 70 294 70q168 0 294 -73q122 -71 189 -197q66 -124 66 -275
v-86zM836 508q7 178 -61 257q-69 79 -179 79q-94 0 -159 -53q-64 -52 -72 -152h32q150 0 249 -32q98 -31 177 -105zM862 1366l-71 -182l-662 246l84 204z" />
    <glyph glyph-name="emacron.ss01" horiz-adv-x="1208" 
d="M1153 459h-790q1 -117 67 -181q67 -65 178 -65q108 0 170 43q64 44 82 111h285q-17 -135 -98 -224q-82 -89 -195 -133q-111 -43 -225 -43q-269 0 -425 148q-155 147 -155 417q0 166 69 292q70 128 194 196q128 70 294 70q168 0 294 -73q122 -71 189 -197q66 -124 66 -275
v-86zM836 508q7 178 -61 257q-69 79 -179 79q-94 0 -159 -53q-64 -52 -72 -152h32q150 0 249 -32q98 -31 177 -105zM973 1186h-731v217h731v-217z" />
    <glyph glyph-name="eogonek.ss01" horiz-adv-x="1208" 
d="M1153 459h-791q1 -116 68 -181t178 -65q108 0 170 43q64 44 82 111h285q-18 -140 -107 -232t-215 -135q-109 -45 -155 -93q-47 -49 -47 -87q0 -70 108 -70q45 0 88 6v-174q-67 -8 -137 -8q-141 0 -222 39t-81 135q0 79 77 139q76 59 228 70v12q-24 -2 -55 -2
q-269 0 -425 148q-155 147 -155 417q0 166 69 292q70 128 194 196q128 70 294 70q168 0 294 -73q122 -71 189 -197q66 -124 66 -275v-86zM836 508q7 178 -61 257q-69 79 -179 79q-94 0 -159 -53q-64 -52 -72 -152h32q150 0 249 -32q98 -31 177 -105z" />
    <glyph glyph-name="j.ss01" horiz-adv-x="567" 
d="M147 1242q-57 57 -57 132q0 77 57 134t136 57q76 0 134 -56q56 -55 56 -135t-55 -134q-56 -54 -135 -54q-80 0 -136 56zM451 -377h-334v1434h334v-1434z" />
    <glyph glyph-name="k.ss01" horiz-adv-x="1210" 
d="M90 0v1434h326v-467q0 -101 -8 -351l10 -4q51 74 103 132q50 56 147 151l161 162h379l-424 -420l424 -637h-377l-272 416l-143 -148v-268h-326z" />
    <glyph glyph-name="uni0137.ss01" horiz-adv-x="1210" 
d="M90 0v1434h326v-467q0 -101 -8 -351l10 -4q51 74 103 132q50 56 147 151l161 162h379l-424 -420l424 -637h-377l-272 416l-143 -148v-268h-326zM582 -565h-217l94 391h293z" />
    <glyph glyph-name="t.ss01" horiz-adv-x="858" 
d="M506 1057h309v-199h-301v-858h-334v858h-157v199h157v276h316z" />
    <glyph glyph-name="tbar.ss01" horiz-adv-x="862" 
d="M514 627h305v-127h-305v-500h-334v500h-157v127h157v231h-157v199h157v276h316l10 -276h309v-199h-301v-231z" />
    <glyph glyph-name="tcaron.ss01" horiz-adv-x="858" 
d="M506 1057h309v-199h-301v-858h-334v858h-157v199h157v276h316zM782 1135h-194l63 421h283z" />
    <glyph glyph-name="uni0163.ss01" horiz-adv-x="858" 
d="M506 1057h309v-199h-301v-858h-334v858h-157v199h157v276h316zM367 -100q94 0 155 -43q62 -44 62 -113q0 -96 -83 -144q-84 -49 -231 -49q-56 0 -151 5v120q52 -2 123 -2q54 0 85 21t31 53q0 70 -116 70q-30 0 -52 -2v82q84 30 84 102h148q0 -29 -23 -54q-22 -23 -57 -34
v-12h25z" />
    <glyph glyph-name="uni021B.ss01" horiz-adv-x="858" 
d="M506 1057h309v-199h-301v-858h-334v858h-157v199h157v276h316zM324 -565h-218l95 391h293z" />
    <glyph glyph-name="g.ss02" horiz-adv-x="1339" 
d="M899 1057h318v-934q0 -266 -142 -406q-140 -139 -411 -139q-261 0 -408 99t-164 290l328 2q6 -76 65 -114q60 -39 166 -39q115 0 176 68q62 70 62 198v272h-12q-49 -165 -153 -245t-237 -80q-127 0 -227 66q-99 65 -157 187q-56 118 -56 275q0 158 56 276q57 120 157 186
t227 66q135 0 237 -78q104 -80 153 -245h12zM820 326q69 76 69 198v68q0 120 -69 196t-183 76q-115 0 -184 -83q-70 -84 -70 -224q0 -138 70 -223q69 -84 184 -84q114 0 183 76z" />
    <glyph glyph-name="gbreve.ss02" horiz-adv-x="1339" 
d="M899 1057h318v-934q0 -266 -142 -406q-140 -139 -411 -139q-261 0 -408 99t-164 290l328 2q6 -76 65 -114q60 -39 166 -39q115 0 176 68q62 70 62 198v272h-12q-49 -165 -153 -245t-237 -80q-127 0 -227 66q-99 65 -157 187q-56 118 -56 275q0 158 56 276q57 120 157 186
t227 66q135 0 237 -78q104 -80 153 -245h12zM820 326q69 76 69 198v68q0 120 -69 196t-183 76q-115 0 -184 -83q-70 -84 -70 -224q0 -138 70 -223q69 -84 184 -84q114 0 183 76zM426 1267q-98 80 -125 224h240q8 -56 42 -83q36 -28 87 -28q108 0 131 111h239
q-29 -146 -127 -225q-100 -80 -243 -80q-145 0 -244 81z" />
    <glyph glyph-name="uni0123.ss02" horiz-adv-x="1339" 
d="M899 1057h318v-934q0 -266 -142 -406q-140 -139 -411 -139q-261 0 -408 99t-164 290l328 2q6 -76 65 -114q60 -39 166 -39q115 0 176 68q62 70 62 198v272h-12q-49 -165 -153 -245t-237 -80q-127 0 -227 66q-99 65 -157 187q-56 118 -56 275q0 158 56 276q57 120 157 186
t227 66q135 0 237 -78q104 -80 153 -245h12zM820 326q69 76 69 198v68q0 120 -69 196t-183 76q-115 0 -184 -83q-70 -84 -70 -224q0 -138 70 -223q69 -84 184 -84q114 0 183 76zM770 1186h-217l94 391h293z" />
    <glyph glyph-name="gdotaccent.ss02" horiz-adv-x="1339" 
d="M899 1057h318v-934q0 -266 -142 -406q-140 -139 -411 -139q-261 0 -408 99t-164 290l328 2q6 -76 65 -114q60 -39 166 -39q115 0 176 68q62 70 62 198v272h-12q-49 -165 -153 -245t-237 -80q-127 0 -227 66q-99 65 -157 187q-56 118 -56 275q0 158 56 276q57 120 157 186
t227 66q135 0 237 -78q104 -80 153 -245h12zM820 326q69 76 69 198v68q0 120 -69 196t-183 76q-115 0 -184 -83q-70 -84 -70 -224q0 -138 70 -223q69 -84 184 -84q114 0 183 76zM536 1242q-57 57 -57 132q0 77 57 134t134 57q78 0 136 -56q56 -55 56 -135q0 -81 -56 -134
q-57 -54 -136 -54q-78 0 -134 56z" />
    <glyph glyph-name="l.ss02" horiz-adv-x="681" 
d="M183 66q-93 82 -93 266v1102h336v-1074q0 -69 35 -96q33 -26 110 -26q28 0 64 2v-252q-79 -4 -148 -4q-212 0 -304 82z" />
    <glyph glyph-name="lacute.ss02" horiz-adv-x="681" 
d="M183 66q-93 82 -93 266v1102h336v-1074q0 -69 35 -96q33 -26 110 -26q28 0 64 2v-252q-79 -4 -148 -4q-212 0 -304 82zM737 1806l-663 -245l-70 182l649 268z" />
    <glyph glyph-name="lcaron.ss02" horiz-adv-x="681" 
d="M183 66q-93 82 -93 266v1102h336v-1074q0 -69 35 -96q33 -26 110 -26q28 0 64 2v-252q-79 -4 -148 -4q-212 0 -304 82zM707 868h-179l64 566h282z" />
    <glyph glyph-name="uni013C.ss02" horiz-adv-x="681" 
d="M183 66q-93 82 -93 266v1102h336v-1074q0 -69 35 -96q33 -26 110 -26q28 0 64 2v-252q-79 -4 -148 -4q-212 0 -304 82zM319 -565h-217l95 391h292z" />
    <glyph glyph-name="lslash.ss02" horiz-adv-x="839" 
d="M698 240v-252q-79 -4 -149 -4q-212 0 -303 82q-92 83 -92 266v231l-154 -76v142l154 76v729h333v-566l156 78v-141l-156 -78v-367q0 -69 35 -96q33 -26 113 -26q25 0 63 2z" />
    <glyph glyph-name="oe.ss02" horiz-adv-x="2043" 
d="M332 36q-133 70 -208 197q-77 130 -77 299q0 165 77 293q76 126 208 196q130 69 293 69q121 0 228 -46q105 -45 177 -135h12q125 181 402 181q167 0 292 -74q123 -73 188 -198t65 -273v-86h-791q1 -115 67 -181q65 -65 177 -65q110 0 172 43q64 44 80 111h284
q-17 -135 -97 -224q-81 -90 -193 -133q-111 -43 -226 -43q-142 0 -247 42q-106 42 -173 138h-12q-146 -180 -405 -180q-163 0 -293 69zM801 294q63 81 63 238q0 154 -63 233t-176 79q-116 0 -179 -79t-63 -233q0 -157 63 -238t179 -81q113 0 176 81zM1241 639q133 0 238 -31
q103 -30 180 -106l12 6q6 184 -62 259q-69 77 -179 77q-94 0 -158 -53q-65 -54 -72 -152h41z" />
    <glyph glyph-name="u.ss02" horiz-adv-x="1280" 
d="M232 99q-142 130 -142 382v576h336v-590q-8 -252 213 -252t215 252v590h336v-576q0 -257 -144 -385q-143 -127 -407 -127q-265 0 -407 130z" />
    <glyph glyph-name="uacute.ss02" horiz-adv-x="1280" 
d="M232 99q-142 130 -142 382v576h336v-590q-8 -252 213 -252t215 252v590h336v-576q0 -257 -144 -385q-143 -127 -407 -127q-265 0 -407 130zM1120 1430l-663 -246l-70 182l649 268z" />
    <glyph glyph-name="ucircumflex.ss02" horiz-adv-x="1280" 
d="M232 99q-142 130 -142 382v576h336v-590q-8 -252 213 -252t215 252v590h336v-576q0 -257 -144 -385q-143 -127 -407 -127q-265 0 -407 130zM248 1186l233 295h316l233 -295h-260l-51 55q-49 49 -72 82h-12q-23 -33 -70 -80l-55 -57h-262z" />
    <glyph glyph-name="udieresis.ss02" horiz-adv-x="1280" 
d="M232 99q-142 130 -142 382v576h336v-590q-8 -252 213 -252t215 252v590h336v-576q0 -257 -144 -385q-143 -127 -407 -127q-265 0 -407 130zM741 1235q-47 47 -47 113q0 64 47 113q47 48 115 48t114 -46t46 -115q0 -68 -46 -114t-114 -46t-115 47zM311 1233
q-47 47 -47 113q0 64 47 113q47 48 115 48q69 0 115 -46q47 -47 47 -115q0 -67 -47 -114q-46 -46 -115 -46q-68 0 -115 47z" />
    <glyph glyph-name="ugrave.ss02" horiz-adv-x="1280" 
d="M232 99q-142 130 -142 382v576h336v-590q-8 -252 213 -252t215 252v590h336v-576q0 -257 -144 -385q-143 -127 -407 -127q-265 0 -407 130zM895 1366l-72 -182l-661 246l84 204z" />
    <glyph glyph-name="uhungarumlaut.ss02" horiz-adv-x="1280" 
d="M232 99q-142 130 -142 382v576h336v-590q-8 -252 213 -252t215 252v590h336v-576q0 -257 -144 -385q-143 -127 -407 -127q-265 0 -407 130zM735 1485l-260 -301l-162 106l203 342zM1149 1485l-260 -301l-162 106l203 342z" />
    <glyph glyph-name="umacron.ss02" horiz-adv-x="1280" 
d="M232 99q-142 130 -142 382v576h336v-590q-8 -252 213 -252t215 252v590h336v-576q0 -257 -144 -385q-143 -127 -407 -127q-265 0 -407 130zM1006 1186h-732v217h732v-217z" />
    <glyph glyph-name="uogonek.ss02" horiz-adv-x="1280" 
d="M854 1057h336v-576q0 -193 -84 -315t-240 -168q-107 -44 -153 -91q-47 -49 -47 -87q0 -70 108 -70q44 0 88 6v-174q-67 -8 -137 -8q-141 0 -222 39t-81 135q0 79 77 139q76 59 228 70v16q-51 -4 -88 -4q-265 0 -407 130t-142 382v576h336v-590q-8 -252 213 -252t215 252
v590z" />
    <glyph glyph-name="f_b" horiz-adv-x="2123" 
d="M1865 1021q98 -68 155 -196q57 -127 57 -297t-57 -297t-155 -194q-100 -68 -227 -68q-133 0 -237 79t-154 243h-12l-8 -291h-326v1194h-219q-64 0 -97 -28q-32 -27 -32 -91v-18h266v-199h-258v-858h-334v858h-204v199h204v10q0 188 100 286q98 97 310 97h598v-686h12
q50 167 154 246q106 80 237 80q128 0 227 -69zM1672 279q69 89 69 249q0 163 -69 251q-69 89 -185 89q-114 0 -182 -75q-70 -78 -70 -199v-133q0 -117 70 -195q69 -76 182 -76q116 0 185 89z" />
    <glyph glyph-name="f_f_b" horiz-adv-x="2799" 
d="M2541 1021q98 -68 155 -196q57 -127 57 -297t-57 -297t-155 -194q-100 -68 -227 -68q-133 0 -237 79t-154 243h-12l-8 -291h-326v1194h-219q-64 0 -97 -28q-32 -27 -32 -91v-18h266v-199h-258v-858h-334v858h-342v-858h-334v858h-204v199h204v30q0 192 101 287t317 96
q126 0 225 -6v-258q-105 4 -161 4q-92 -2 -124 -26t-32 -97v-30h350v10q0 189 99 286q98 97 311 97h598v-686h12q50 167 154 246q106 80 237 80q128 0 227 -69zM2348 279q69 89 69 249q0 163 -69 251q-69 89 -185 89q-115 0 -183 -75q-69 -77 -69 -199v-133q0 -119 69 -195
t183 -76q116 0 185 89z" />
    <glyph glyph-name="f_f_h" horiz-adv-x="2799" 
d="M2511 1041q90 -48 144 -141q55 -95 55 -224v-676h-334v575q0 261 -228 261q-108 0 -173 -74q-64 -73 -64 -207v-555h-334v1214h-219q-66 0 -97 -27q-32 -27 -32 -91v-39h266v-199h-258v-858h-334v858h-342v-858h-334v858h-204v199h204v30q0 192 101 287t317 96
q126 0 225 -6v-258q-105 4 -161 4q-92 -2 -124 -26t-32 -97v-30h350v30q0 189 99 286q98 97 311 97h598v-739h12q16 110 74 192q56 80 141 124q83 43 178 43q103 0 195 -49z" />
    <glyph glyph-name="f_f_j" horiz-adv-x="2007" 
d="M1261 1187q-32 -27 -32 -91v-39h682v-1075q0 -146 -33 -222q-32 -74 -117 -109q-83 -34 -250 -34q-77 0 -172 6v240q44 -2 86 -2q70 0 100 10q31 10 42 35q10 23 10 76v876h-340v-858h-334v858h-342v-858h-334v858h-204v199h204v30q0 192 101 287t317 96q126 0 225 -6
v-258q-105 4 -161 4q-92 -2 -124 -26t-32 -97v-30h350v30q0 189 99 286q98 97 311 97h598v-256h-553q-66 0 -97 -27z" />
    <glyph glyph-name="f_f_k" horiz-adv-x="2707" 
d="M2281 610q100 -1 166 -57t107 -164l151 -389h-340l-81 221q-30 82 -77 126t-118 44h-55l-123 -123v-268h-326v1214h-227q-66 0 -97 -27q-32 -27 -32 -91v-39h266v-199h-258v-858h-334v858h-342v-858h-334v858h-204v199h204v30q0 192 101 287t317 96q126 0 225 -6v-258
q-105 4 -161 4q-92 -2 -124 -26t-32 -97v-30h350v30q0 189 99 286q98 97 311 97h598v-493q0 -191 -8 -359l12 -6q51 78 105 138q36 40 101 105l60 60l143 142h381l-211 -209q-110 -110 -243 -225l2 -11z" />
    <glyph glyph-name="f_f_r" horiz-adv-x="2420" 
d="M1923 649q24 164 70 255q46 90 135 130q91 41 254 41v-276q-176 -10 -273 -38q-93 -27 -142 -98q-48 -71 -56 -208v-455h-334v858h-340v-858h-334v858h-342v-858h-334v858h-204v199h204v30q0 192 101 287t317 96q126 0 225 -6v-258q-105 4 -161 4q-92 -2 -124 -26
t-32 -97v-30h350v30q0 189 99 286q98 97 311 97h590v-256h-545q-66 0 -97 -27q-32 -27 -32 -91v-39h674l8 -408h12z" />
    <glyph glyph-name="f_f_y" horiz-adv-x="2564" 
d="M2216 1057h346l-391 -1088q-50 -143 -124 -226q-72 -81 -174 -114q-99 -32 -247 -32q-39 0 -170 8v250q79 -7 115 -7q84 0 128 25q40 23 68 88l19 43l-305 854h-244v-858h-334v858h-342v-858h-334v858h-204v199h204v30q0 192 101 287t317 96q126 0 225 -6v-258
q-105 4 -161 4q-92 -2 -124 -26t-32 -97v-30h350v30q0 192 101 287t317 96q126 0 225 -6v-258q-105 4 -162 4q-91 -1 -123 -26q-32 -24 -32 -97v-30h538l68 -228q105 -360 152 -548h10q91 353 153 555z" />
    <glyph glyph-name="f_h" horiz-adv-x="2123" 
d="M1835 1041q90 -48 144 -141q55 -95 55 -224v-676h-334v575q0 261 -227 261q-109 0 -174 -74q-64 -73 -64 -207v-555h-334v1214h-219q-66 0 -97 -27q-32 -27 -32 -91v-39h266v-199h-258v-858h-334v858h-204v199h204v30q0 188 100 286q98 97 310 97h598v-739h12
q16 110 74 192q56 80 141 124q83 43 178 43q103 0 195 -49z" />
    <glyph glyph-name="f_j" horiz-adv-x="1331" 
d="M585 1187q-32 -27 -32 -91v-39h682v-1075q0 -146 -33 -222q-32 -74 -117 -109q-83 -34 -249 -34q-76 0 -172 6v240q44 -2 86 -2q69 0 99 10q31 10 42 35q10 23 10 76v876h-340v-858h-334v858h-204v199h204v30q0 188 100 286q98 97 310 97h598v-256h-553q-66 0 -97 -27z
" />
    </font>
</defs>
</svg>
